Ссылка на приватное зеркало всего за 1$. Внимание количество ограничено!!!

OK

1+1

iTunes

мы

OK

1

WEB-DLRip

Джокер

Пифагор

Ведьмак / The Witcher сериал

iTunes

ПШазам

ОК

Оно 2

iTunes

30
pack

Вам бонус

ВАЖНО

!!Акция!!

Alien_RageХит недели

RePack

Resident Evil 21

ИГРА 18+

pack

RePack

jed

RePack

fifa19

RePack

Assassins Creed: Odyssey

RePack

NEED FOR SPEED™ PAYBACK

4 сезон

9 сезон

Бесстыжие 9 сезон

Все сериалы

все сериалы на PB.wtf

RePack

FAR CRY 5
  

Викинги / Vikings / Сезоны: 6 / Серии: 1-8 из 20 (Стив Сэйнт Лигер) [2019, боевик, драма, мелодрама, военный, WEB-DL 1080p] MVO [AlexFilm] piratbit.pw

Викинги через торрент piratbit.pw

Качают: 14 [ 0 KB/s ]
Размер: 22.07 GB | Добавлен: 22 ч. назад | Торрент скачан:5 раз
Скачать  

05-12-2019 14:04 Викинги Скачать торрент  

Викинги | Vikings
Год выпуска: 2019
Страна: Ирландия, Канада
Жанр: боевик, драма, мелодрама, военный
Продолжительность: ~ 00:45:00 серия
Перевод: Профессиональный (многоголосый) | AlexFilm
Субтитры: English (SDH)

Режиссер: Стив Сэйнт Лигер

rating


В ролях: Алекс Хёг Андерсен, Кэти Монахэн, Фердия Уолш-Пило, Андрей Клод, Алисиа Агнесон, Люси Мартин, Ленн Кудрявицки, Джордан Патрик Смит, Кристи Динсмор, Данила Козловский, Кэтрин Уинник, Марко Лейт

Описание: Вольная интерпретация событий времен раннего Средневековья – экшн-драма, созданная на основе скандинавских саг сценаристом «Тюдоров» и «Елизаветы» Майклом Хёрстом. Сериал поведает о ранних набегах викингов на Британские острова и Западно-Франкское королевство. Главный герой – Рагнар Лодброк – вождь викингов, по норвежской легенде прямой потомок самого Одина, бога войны и воинов. Он бросает вызов местному правителю и вместе со своим верным другом, талантливым мастером Флоки, строит быстроходный корабль, чтобы отправиться покорять новые земли. Рагнара и его соратников ждут победы и поражения, а вместе с ними и жестокое противостояние с действующим ярлом, воле которого он осмелился перечить. В роли легендарного воина австралийский актер Трэвис Фиммел («Варкрафт»).

Север помнит: в шестом сезоне «Викингов» готовьтесь к долгому увлекательному путешествию. Новые эпизоды сериала будут посвящены экспансии викингов: герои отправятся по Шелковому пути. Им предстоит столкнуться не только с традициями Китая, но и Древней Русью. В новом сезоне каст пополнил российский актер Данила Козловский («Экипаж», «Легенда №17»). Ему досталась важная роль — он сыграл Вещего Олега, очередного опасного противника Рагнара Лодброка.

Качество: WEB-DL 1080p
Формат: MKV

Видео: 1920х1080 at 23.976 fps, MPEG-4 AVC, ~7700 kbps avg
Аудио#1: Russian: 48 kHz, AC3, 3/2 (L,C,R,l,r) + LFE ch, ~384 kbps avg |Многоголосый закадровый, AlexFilm|
Аудио#2: English: 48 kHz, AC3, 3/2 (L,C,R,l,r) + LFE ch, ~640 kbps avg
скриншот  скриншот  скриншот  скриншот  

Complete name : D:\Vikings_(s06)_AlexFilm_1080p\Vikings.2019.S06E01.New.Beginnings.1080p.WEB-DL.DD5.1.x264-AMRAP_EniaHD.mkv
Format : Matroska
Format version : Version 2
File size : 2.82 GiB
Duration : 45 min 41 s
Overall bit rate : 8 840 kb/s
Encoded date : UTC 2019-12-05 13:06:23
Writing application : mkvmerge v4.9.1 ('Ich will') сборка от Jul 11 2011 23:53:15
Writing library : libebml v1.2.1 + libmatroska v1.1.1

Video
ID : 1
Format : AVC
Format/Info : Advanced Video Codec
Format profile : High@L4
Format settings : CABAC / 4 Ref Frames
Format settings, CABAC : Yes
Format settings, Reference : 4 frames
Codec ID : V_MPEG4/ISO/AVC
Duration : 45 min 41 s
Bit rate mode : Constant
Bit rate : 7 640 kb/s
Nominal bit rate : 10 000 kb/s
Width : 1 920 pixels
Height : 1 080 pixels
Display aspect ratio : 16:9
Frame rate mode : Constant
Frame rate : 23.976 (24000/1001) FPS
Color space : YUV
Chroma subsampling : 4:2:0
Bit depth : 8 bits
Scan type : Progressive
Bits/(Pixel*Frame) : 0.154
Stream size : 2.44 GiB (86%)
Title : Release by EniaHD
Language : English
Default : Yes
Forced : No
Color range : Limited
Color primaries : BT.709
Transfer characteristics : BT.709
Matrix coefficients : BT.709

Audio #1
ID : 2
Format : AC-3
Format/Info : Audio Coding 3
Commercial name : Dolby Digital
Codec ID : A_AC3
Duration : 45 min 41 s
Bit rate mode : Constant
Bit rate : 384 kb/s
Channel(s) : 6 channels
Channel layout : L R C LFE Ls Rs
Sampling rate : 48.0 kHz
Frame rate : 31.250 FPS (1536 SPF)
Bit depth : 16 bits
Compression mode : Lossy
Stream size : 125 MiB (4%)
Title : AlexFilm
Language : Russian
Service kind : Complete Main
Default : Yes
Forced : No

Audio #2
ID : 3
Format : AC-3
Format/Info : Audio Coding 3
Commercial name : Dolby Digital
Codec ID : A_AC3
Duration : 45 min 41 s
Bit rate mode : Constant
Bit rate : 640 kb/s
Channel(s) : 6 channels
Channel layout : L R C LFE Ls Rs
Sampling rate : 48.0 kHz
Frame rate : 31.250 FPS (1536 SPF)
Bit depth : 16 bits
Compression mode : Lossy
Stream size : 209 MiB (7%)
Language : English
Service kind : Complete Main
Default : No
Forced : No

Text
ID : 4
Format : UTF-8
Codec ID : S_TEXT/UTF8
Codec ID/Info : UTF-8 Plain Text
Title : SDH
Language : English
Default : No
Forced : No

Внимание! Раздача ведётся путём добавления новых серий; при каждом добавлении создаётся новый торрент. Чтобы начать докачку новой серии, пользователям необходимо сделать следующее:
(1) остановить скачивание,
(2) удалить старый торрент у себя из клиента (старые серии удалять не надо),
(3) скачать новый торрент и запустить его у себя в клиенте вместо старого, при этом указать клиенту путь в старую папку куда и должно происходить скачивание новых серий.

Ваш клиент при этом должен произвести хеширование (проверку) старой папки (если не производит сам - помогите ему сделать это), и будет докачивать только те серии которых у вас ещё нет. Старые серии при этом не удаляются, а продолжают раздаваться!

Eсли вы уже удалили старые серии, то предотвратить повторную закачку старых серий можно, отжав галочку в соответсвующих местах при запуске нового торрента. По возможности, желательно не удалять старые серии как можно дольше чтобы релизёр не столько продолжал раздавать старые серии, а смог сконцентрироваться на новых.
piratbit.pw



Скачать Викинги через торрент http://i74.fastpic.ru/big/2016/0219/4f/bc0fcdc3863d679dbcd811bcd087514f.gif Скачать фильм Викинги через торрент бесплантно в хорошем качестве Описание: Вольная интерпретация событий времен раннего Средневековья – экшн-драма, созданная на основе скандинавских саг сценаристом ... 10 10 13
Торрент: Зарегистрирован [2020-01-23 14:48] · скачан: 5 раз
Статус: √ проверено
Размер: 22.07 GB
Как cкачать? Как скачать Викинги через торрент | qTorrent

% Раздел Тема Автор DL S | L
T Зарубежные сериалы [ 10.34 GB ] Викинги / Vikings / Сезоны: 6 / Серии: 1-8 из 20 [2019 история военный WEBRip 720p] MVO [Kerob] bober100 Скачать
12 | 15
Зарубежные сериалы [ 11.98 GB ] Викинги / Vikings / Сезоны: 6 / Серии: 1-8 из 20 [2019 военный WEB-DL 720p] MVO [AlexFilm] bober100 Скачать
2 | 13
Зарубежные сериалы [ 4.97 GB ] Викинги / Vikings / Сезоны: 6 / Серии: 1-8 из 20 [2019 военный WEB-DLRip] MVO [AlexFilm] bober100 Скачать
6 | 9
T Зарубежные сериалы [ 3.39 GB ] Викинги / Vikings / Сезоны: 6 / Серии: 1-8 из 20 [2019 история военный WEBRip] MVO [Kerob] bober100 Скачать
1 | 4
T Зарубежные сериалы [ 18.33 GB ] Викинги / Vikings / Сезоны: 6 / Серии: 1-8 из 20 [2019 история военный WEBRip 1080p] MVO [Octopus] bober100 Скачать
5 | 6
T Зарубежные сериалы [ 11.87 GB ] Викинги / Vikings / Сезоны: 6 / Серии: 1-8 из 20 [2019 история военный WEBRip 720p] MVO [Octopus] bober100 Скачать
1 | 3
T Зарубежные сериалы [ 4.79 GB ] Викинги / Vikings / Сезоны: 6 / Серии: 1-8 из 20 [2019 история военный WEBRip] MVO [Octopus] bober100 Скачать
2 | 3

28-11-2019 20:33  

Отключить всю рекламу на сайте

    Дорогой пользователь! Огромная просьба, поблагодарите релизера, оцените раздачу и оставьте свои комментарий, если Вы скачали Викинги через торрент бесплатно! Внесите свою лепту в развитие PiratBit!
    Комментировать посты могут только пользователи прошедшие не сложную регистрацию
    Показать сообщения:    

    Викинги через торрент
    Скачать бесплатно Викинги
    Викинги скачать торрент
    Викинги смотреть онлайн
    Cкачать фильм Викинги бесплатно
    Викинги скачать торрент в хорошем качестве
    Викинги смотреть онлайн бесплатно в хорошем качестве


    Вы не можете начинать темы
    Вы не можете отвечать на сообщения
    Вы не можете редактировать свои сообщения
    Вы не можете удалять свои сообщения
    Вы не можете голосовать в опросах
    Вы не можете прикреплять файлы к сообщениям
    Вы можете скачивать файлы