Marvel's Avengers Deluxe Edition (супер цена) 159р. Внимание количество ограничено!!!

2 сезон

iTunes

iTunes

1

iTunes

iTunes

iTunes

WEBRip

iTunes

30
pack

Новость дня

ВАЖНО

!!Акция!!

Alien_RageХит недели

RePack

Horizon Zero Dawn

ИГРА 18+

pack

RePack

jed

!!Акция!!

Alien_Rage

RePack

fifa19

RePack

Assassins Creed: Odyssey

RePack

NEED FOR SPEED™ PAYBACK

4 сезон

9 сезон

Бесстыжие 9 сезон

Все сериалы

все сериалы на PB.wtf

RePack

FAR CRY 5
  

Сволочи (Александр Атанесян) [2006, Боевик, драма, военный, BDRip 1080p, (10 bit)] [Лицензия] piratbit.pw

Сволочи через торрент piratbit.pw

Раздают: 1 [ 0 KB/s ]
Размер: 8.48 GB | Добавлен: 9 мес. назад | Торрент скачан:31 раз
Скачать  

04-12-2019 17:06 Сволочи Скачать торрент  

Сволочи
Год выпуска: 2006
Страна: Россия
Жанр: Боевик, драма, военный
Продолжительность: 01:37:14
Перевод: Не требуется | Лицензия
Субтитры: отсутствуют

Режиссер: Александр Атанесян

rating

В ролях: Андрей Панин, Андрей Краско, Александр Головин, Сергей Рыченков, Владимир Андреев, Владимир Кашпур, Никита Ерунов, Олег Буганов, Мариус Штандель, Игорь Юртаев, Александр Вербицкий, Алексей Соболев, Велимир Русаков, Дмитрий Горевой, Семен Сивков, Илья Сысоев, Кирилл Емельянов, Василий Лыкшин, Никита Панов, Геннадий Матвеев, Владимир Терещенко, Владимир Шульга, Ростислав Бершауэр, Александр Никулин, Юрий Сысоев, Роман Савченко, Андрей Бобров, Павел Абдалов, Александр Балабушевич, Игорь Бровин, Александр Гришин, Денис Карасев, Николай Качура, Вадим Колганов

Описание: 1943 год. Полковник Вишневецкий получает правительственное задание: подготовить диверсионную группу бойцов-смертников, которая должна блокировать действия отборных немецких соединений «Эдельвейс». Группа набирается из отчаянных мальчишек 14-15 лет, сирот, которых никто не будет искать. Подростков отправляют в потайной горный лагерь, где они проходят специальную подготовку. Им предназначено уничтожить фашистскую военную базу и погибнуть, поскольку «носители особо секретной информации» не должны оставаться в живых.

Качество: BDRip-HEVC 1080p
Формат: MKV

Видео: HEVC/x.265, 1920x1080, ~11,8 Mbps, 10 bit
Аудио: AC3, 6 ch, 640 Kbps | Русский
скриншот  скриншот  скриншот  скриншот  

x265 info: frame I: 1172, Avg QP:16.60 kb/s: 30101.76
x265 info: frame P: 29276, Avg QP:18.06 kb/s: 20571.80
x265 info: frame B: 115410, Avg QP:20.29 kb/s: 9441.71
x265 info: Weighted P-Frames: Y:5.9% UV:4.6%
x265 info: consecutive B-frames: 7.2% 4.0% 7.7% 26.0% 13.9% 29.4% 5.5% 5.3% 0.7% 0.1% 0.0% 0.0% 0.0% 0.0% 0.0% 0.0% 0.0%
x265 info: encoded 145858 frames in 133467.10s (1.09 fps), 11841.70 kb/s, Avg QP:19.82

Формат : Matroska
Версия формата : Version 4
Размер файла : 8,48 Гбайт
Продолжительность : 1 ч. 37 м.
Общий поток : 12,5 Мбит/сек
Название фильма : Сволочи (2006) Encoded_by_M@kSIMus
Дата кодирования : UTC 2019-12-04 16:40:53
Программа кодирования : mkvmerge v40.0.0 ('Old Town Road + Pony') 64-bit
Библиотека кодирования : libebml v1.3.9 + libmatroska v1.5.2
Обложка : Yes
Attachments : cover1.jpg

Видео
Идентификатор : 1
Формат : HEVC
Формат/Информация : High Efficiency Video Coding
Профиль формата : Main 10@L4.1@High
Идентификатор кодека : V_MPEGH/ISO/HEVC
Продолжительность : 1 ч. 37 м.
Битрейт : 11,8 Мбит/сек
Ширина : 1920 пикселей
Высота : 1080 пикселей
Соотношение сторон : 16:9
Режим частоты кадров : Постоянный
Частота кадров : 25,000 кадров/сек
Цветовое пространство : YUV
Субдискретизация насыщенности : 4:2:0
Битовая глубина : 10 бит
Бит/(Пиксели*Кадры) : 0.228
Размер потока : 8,04 Гбайт (95%)
Библиотека кодирования : x265 3.2+5-354901970679:[Windows][clang 8.0.1][64 bit] 10bit
Настройки программы : cpuid=1049583 / frame-threads=5 / numa-pools=4 / wpp / no-pmode / no-pme / no-psnr / no-ssim / log-level=3 / input-csp=1 / input-res=1920x1080 / interlace=0 / total-frames=0 / level-idc=41 / high-tier=1 / uhd-bd=0 / ref=4 / allow-non-conformance / no-repeat-headers / annexb / no-aud / no-hrd / info / hash=0 / no-temporal-layers / open-gop / min-keyint=25 / keyint=250 / gop-lookahead=0 / bframes=16 / b-adapt=2 / b-pyramid / bframe-bias=0 / rc-lookahead=40 / lookahead-slices=6 / scenecut=40 / radl=0 / no-splice / no-intra-refresh / ctu=32 / min-cu-size=8 / no-rect / no-amp / max-tu-size=32 / tu-inter-depth=4 / tu-intra-depth=4 / limit-tu=1 / rdoq-level=1 / dynamic-rd=0.00 / no-ssim-rd / signhide / no-tskip / nr-intra=0 / nr-inter=0 / no-constrained-intra / no-strong-intra-smoothing / max-merge=5 / limit-refs=1 / no-limit-modes / me=3 / subme=7 / merange=57 / temporal-mvp / no-frame-dup / no-hme / weightp / no-weightb / no-analyze-src-pics / deblock=-3:-3 / no-sao / no-sao-non-deblock / rd=3 / selective-sao=0 / early-skip / no-rskip / no-fast-intra / no-tskip-fast / no-cu-lossless / b-intra / no-splitrd-skip / rdpenalty=0 / psy-rd=2.00 / psy-rdoq=1.00 / no-rd-refine / no-lossless / cbqpoffs=0 / crqpoffs=0 / rc=crf / crf=20.0 / qcomp=0.60 / qpstep=4 / stats-write=0 / stats-read=0 / vbv-maxrate=50000 / vbv-bufsize=50000 / vbv-init=0.9 / crf-max=0.0 / crf-min=0.0 / ipratio=1.40 / pbratio=1.30 / aq-mode=3 / aq-strength=1.00 / no-cutree / zone-count=0 / no-strict-cbr / qg-size=32 / no-rc-grain / qpmax=69 / qpmin=0 / no-const-vbv / sar=1 / overscan=0 / videoformat=5 / range=0 / colorprim=1 / transfer=1 / colormatrix=1 / chromaloc=0 / display-window=0 / cll=0,0 / min-luma=0 / max-luma=1023 / log2-max-poc-lsb=8 / vui-timing-info / vui-hrd-info / slices=1 / no-opt-qp-pps / no-opt-ref-list-length-pps / no-multi-pass-opt-rps / scenecut-bias=0.05 / no-opt-cu-delta-qp / no-aq-motion / no-hdr / no-hdr-opt / no-dhdr10-opt / no-idr-recovery-sei / analysis-reuse-level=5 / scale-factor=0 / refine-intra=0 / refine-inter=0 / refine-mv=1 / refine-ctu-distortion=0 / no-limit-sao / ctu-info=0 / no-lowpass-dct / refine-analysis-type=0 / copy-pic=1 / max-ausize-factor=1.0 / no-dynamic-refine / no-single-sei / no-hevc-aq / no-svt / no-field / qp-adaptation-range=1.00
Язык : Russian
Default : Да
Forced : Нет
Цветовой диапазон : Limited
Основные цвета : BT.709
Характеристики трансфера : BT.709
Коэффициенты матрицы : BT.709

Аудио
Идентификатор : 2
Формат : AC-3
Формат/Информация : Audio Coding 3
Коммерческое название : Dolby Digital
Идентификатор кодека : A_AC3
Продолжительность : 1 ч. 37 м.
Вид битрейта : Постоянный
Битрейт : 640 Кбит/сек
Каналы : 6 каналов
ChannelLayout : L R C LFE Ls Rs
Частота : 48,0 КГц
Частота кадров : 31,250 кадров/сек (1536 SPF)
Битовая глубина : 16 бит
Метод сжатия : С потерями
Размер потока : 445 Мбайт (5%)
Язык : Russian
Default : Да
Forced : Нет

Меню
00:00:00.000 : :Глава 1
00:05:44.280 : :Глава 2
00:11:37.600 : :Глава 3
00:18:07.160 : :Глава 4
00:24:36.680 : :Глава 5
00:31:24.360 : :Глава 6
00:38:48.280 : :Глава 7
00:46:12.200 : :Глава 8
00:53:27.080 : :Глава 9
01:01:09.080 : :Глава 10
01:08:23.960 : :Глава 11
01:15:47.880 : :Глава 12
01:23:48.040 : :Глава 13
01:29:59.480 : :Глава 14
01:34:13.120 : :Глава 15

piratbit.pw



Скачать Сволочи через торрент https://d.radikal.ru/d20/1912/4d/8900cb862cc9.jpg Скачать фильм Сволочи через торрент бесплантно в хорошем качестве Описание: 1943 год. Полковник Вишневецкий получает правительственное задание: подготовить диверсионную группу бойцов-смертников, которая ... 8.2 10 5
Торрент: Зарегистрирован [2019-12-04 17:06] · скачан: 31 раз
Статус: √ проверено
Размер: 8.48 GB
Как cкачать? Как скачать Сволочи через торрент | qTorrent

% Раздел Тема Автор DL S | L
Фильмы (HD 720p, 1080p) (48-60 fps) [ 23.76 GB ] Сволочи [2006 военный BDRip 1080p ] [] bober100 Скачать
1 | 0
Наши фильмы (Blu-ray, BD-Remux, HDDVD) [ 17.41 GB ] Сволочи [2006 военный BD Remux Оригинальный] Бумер Скачать
1 | 0
Наши фильмы, до 2010 [ 2.18 GB ] Сволочи [2006 военный DVDRip Оригинал] MIXX_ON Скачать
1 | 0
Action FPS (1st Person) [ 1.13 GB ] Medal of Honor - сволочи [лицензияENG/RUMod] kim_23 Скачать
1 | 0
Русские порно ролики [ 245 MB ] Два поддатых парня и очень голодная тощая сволочь [2008 All sex Group CamRip] lokylok Скачать
1 | 0
Секс с подростками [ 152 MB ] Alice / Мелкая сволочь узнала много нового об анальном сексе [2007 Anal Teen Creampie DVDRip] lokylok Скачать
1 | 0

28-11-2019 20:33  

Отключить всю рекламу на сайте

04-12-2019 17:22 Сволочи Скачать торрент  

2 часть интереснейpiratbit.pw



    Дорогой пользователь! Огромная просьба, поблагодарите релизера, оцените раздачу и оставьте свои комментарий, если Вы скачали Сволочи через торрент бесплатно! Внесите свою лепту в развитие PiratBit!
    Комментировать посты могут только пользователи прошедшие не сложную регистрацию
    Показать сообщения:    

    Сволочи через торрент
    Скачать бесплатно Сволочи
    Сволочи скачать торрент
    Сволочи смотреть онлайн
    Cкачать фильм Сволочи бесплатно
    Сволочи скачать торрент в хорошем качестве
    Сволочи смотреть онлайн бесплатно в хорошем качестве


    Вы не можете начинать темы
    Вы не можете отвечать на сообщения
    Вы не можете редактировать свои сообщения
    Вы не можете удалять свои сообщения
    Вы не можете голосовать в опросах
    Вы не можете прикреплять файлы к сообщениям
    Вы можете скачивать файлы