Ссылка на приватное зеркало нашего сайта всего за 1$. Внимание количество ограничено!!!

2 сезон

iTunes

1 сезон

1

iTunes

iTunes

iTunes

1 сезон

RePack

30

ИГРА 18+

pack

ВАЖНО

!!Акция!!

Alien_RageХит недели

RePack

MK11
pack

Забери бонус

RePack

jed

!!Акция!!

Alien_Rage

RePack

fifa19

RePack

Assassins Creed: Odyssey

RePack

NEED FOR SPEED™ PAYBACK

4 сезон

9 сезон

Бесстыжие 9 сезон

Все сериалы

все сериалы на PB.wtf

RePack

FAR CRY 5
  

Дьявольски ваш / Diaboliquement votre (Жюльен Дювивье) [1967, триллер, криминал, BDRip 1080p by msltel] DVO piratbit.pw

Дьявольски ваш через торрент piratbit.pw

Размер: 10.51 GB | Добавлен: 10 мес. назад | Торрент скачан:0 раз
Скачать  

04-12-2019 10:31 Дьявольски ваш Скачать торрент  

Название: Дьявольски ваш
Оригинальное название: Diaboliquement votre
Год выпуска: 1967
Страна: Франция, Италия, Германия (ФРГ)
Жанр: триллер, криминал
Продолжительность: 01:32:43
Перевод: закадровый двухголосый

Режиссер: Жюльен Дювивье
В ролях: Ален Делон, Зента Бергер, Петер Мосбахер, Клод Пьеплю, Альбер Ожье, Рената Бирго, Жорж Монтан, Серджо Фантони, Альбер Домерг

О фильме: После автокатастрофы Пьер потерял память. Старый особняк, красавица жена, бизнес в Гонконге - по крупицам он собирает своё прошлое. Многое удивляет и настораживает. Всё, что рассказывают о нём жена и семейный доктор, не сходится с его собственными ощущениями. Самые худшие подозрения воплощаются в реальность, ведь настоящей тайне всегда нужны жертвы...



Качество: BDRip 1080p
Формат: MKV
Видео: MPEG-4 AVC, 14.5 Mбит/с, 1800x1080
Аудио 1: русский, AC3, 256 kbps, 2 ch, 48 kHz [закадровый двухголосый]
Аудио 2: французский, DTS, 1509 kbps, 2 ch, 48 kHz [оригинал]
Общее
Уникальный идентификатор : 187273800344430625151822657466220444948 (0x8CE39F3A9F478798ADB6FA05CC807D14)
Полное имя : D:\Video\Дьявольски ваш.1967.BDRip 1080p by msltel.mkv
Формат : Matroska
Версия формата : Version 4
Размер файла : 10,5 Гбайт
Продолжительность : 1 ч. 32 м.
Общий поток : 16,2 Мбит/сек
Название фильма : Rip by msltel
Дата кодирования : UTC 2019-12-04 09:34:58
Программа кодирования : mkvmerge v8.2.0 ('World of Adventure') 64bit
Библиотека кодирования : libebml v1.3.1 + libmatroska v1.4.2

Видео
Идентификатор : 1
Формат : AVC
Формат/Информация : Advanced Video Codec
Профиль формата : High@L4.1
Настройки формата : CABAC / 4 Ref Frames
Параметр CABAC формата : Да
Параметр RefFrames формата : 4 кадра
Идентификатор кодека : V_MPEG4/ISO/AVC
Продолжительность : 1 ч. 32 м.
Битрейт : 14,5 Мбит/сек
Ширина : 1800 пикселей
Высота : 1080 пикселей
Соотношение сторон : 5:3
Режим частоты кадров : Постоянный
Частота кадров : 23,976 (24000/1001) кадра/сек
Цветовое пространство : YUV
Субдискретизация насыщенности : 4:2:0
Битовая глубина : 8 бит
Тип развёртки : Прогрессивная
Бит/(Пиксели*Кадры) : 0.310
Размер потока : 9,37 Гбайт (89%)
Библиотека кодирования : x264 core 157 r2935 545de2f
Настройки программы : cabac=1 / ref=4 / deblock=1:-2:-2 / analyse=0x3:0x113 / me=umh / subme=11 / psy=1 / psy_rd=1.00:0.15 / mixed_ref=1 / me_range=32 / chroma_me=1 / trellis=2 / 8x8dct=1 / cqm=0 / deadzone=21,11 / fast_pskip=0 / chroma_qp_offset=-3 / threads=6 / lookahead_threads=1 / sliced_threads=0 / nr=0 / decimate=1 / interlaced=0 / bluray_compat=0 / constrained_intra=0 / bframes=11 / b_pyramid=2 / b_adapt=2 / b_bias=0 / direct=1 / weightb=1 / open_gop=0 / weightp=2 / keyint=230 / keyint_min=23 / scenecut=40 / intra_refresh=0 / rc_lookahead=40 / rc=crf / mbtree=0 / crf=19.3 / qcomp=0.60 / qpmin=0 / qpmax=69 / qpstep=4 / vbv_maxrate=50000 / vbv_bufsize=62500 / crf_max=0.0 / nal_hrd=none / filler=0 / ip_ratio=1.40 / pb_ratio=1.30 / aq=1:1.00
Язык : French
Default : Да
Forced : Нет

Аудио #1
Идентификатор : 2
Формат : AC-3
Формат/Информация : Audio Coding 3
Коммерческое название : Dolby Digital
Идентификатор кодека : A_AC3
Продолжительность : 1 ч. 32 м.
Вид битрейта : Постоянный
Битрейт : 256 Кбит/сек
Каналы : 2 канала
ChannelLayout : L R
Частота : 48,0 КГц
Частота кадров : 31,250 кадров/сек (1536 SPF)
Метод сжатия : С потерями
Размер потока : 170 Мбайт (2%)
Заголовок : DVO
Язык : Russian
ServiceKind/String : Complete Main
Default : Да
Forced : Нет

Аудио #2
Идентификатор : 3
Формат : DTS
Формат/Информация : Digital Theater Systems
Идентификатор кодека : A_DTS
Продолжительность : 1 ч. 32 м.
Вид битрейта : Постоянный
Битрейт : 1509 Кбит/сек
Каналы : 2 канала
ChannelLayout : L R
Частота : 48,0 КГц
Частота кадров : 93,750 кадра/сек (512 SPF)
Битовая глубина : 16 бит
Метод сжатия : С потерями
Размер потока : 1001 Мбайт (9%)
Заголовок : original
Язык : French
Default : Нет
Forced : Нет
piratbit.pw



Скачать Дьявольски ваш через торрент https://b.radikal.ru/b24/1912/a2/de789c04d2be.jpg Скачать фильм Дьявольски ваш через торрент бесплантно в хорошем качестве О фильме: После автокатастрофы Пьер потерял память. Старый особняк, красавица жена, бизнес в е - по крупицам он собирает своё ... 10 10 1
Торрент: Зарегистрирован [2019-12-04 10:31] · скачан: 0 раз
Статус: √ проверено
Размер: 10.51 GB
Как cкачать? Как скачать Дьявольски ваш через торрент | qTorrent

% Раздел Тема Автор DL S | L
Классика зарубежного кино [ 3.61 GB ] Дьявольски ваш / Diaboliquement votre [1967 BDRip 720p by msltel] DVO msltel Скачать
1 | 0
Классика зарубежного кино [ 2.12 GB ] Дьявольски ваш / Diaboliquement votre [1967 BDRip by msltel] DVO msltel Скачать
1 | 0

28-11-2019 20:33  

Отключить всю рекламу на сайте

    Дорогой пользователь! Огромная просьба, поблагодарите релизера, оцените раздачу и оставьте свои комментарий, если Вы скачали Дьявольски ваш через торрент бесплатно! Внесите свою лепту в развитие PiratBit!
    Комментировать посты могут только пользователи прошедшие не сложную регистрацию
    Показать сообщения:    

    Дьявольски ваш через торрент
    Скачать бесплатно Дьявольски ваш
    Дьявольски ваш скачать торрент
    Дьявольски ваш смотреть онлайн
    Cкачать фильм Дьявольски ваш бесплатно
    Дьявольски ваш скачать торрент в хорошем качестве
    Дьявольски ваш смотреть онлайн бесплатно в хорошем качестве


    Вы не можете начинать темы
    Вы не можете отвечать на сообщения
    Вы не можете редактировать свои сообщения
    Вы не можете удалять свои сообщения
    Вы не можете голосовать в опросах
    Вы не можете прикреплять файлы к сообщениям
    Вы можете скачивать файлы