Ссылка на приватное зеркало нашего сайта всего за 1$. Внимание количество ограничено!!!

2 сезон

iTunes

1 сезон

1

iTunes

iTunes

iTunes

1 сезон

RePack

30

ИГРА 18+

pack

ВАЖНО

!!Акция!!

Alien_RageХит недели

RePack

MK11
pack

Забери бонус

RePack

jed

!!Акция!!

Alien_Rage

RePack

fifa19

RePack

Assassins Creed: Odyssey

RePack

NEED FOR SPEED™ PAYBACK

4 сезон

9 сезон

Бесстыжие 9 сезон

Все сериалы

все сериалы на PB.wtf

RePack

FAR CRY 5
  

Тайна фермы Мессе / La Horse (Пьер Гранье-Дефер) [1970, криминал, триллер, BDRip 1080p by msltel] DUB, MVO piratbit.pw

Тайна фермы Мессе через торрент piratbit.pw

Размер: 9.47 GB | Добавлен: 10 мес. назад | Торрент скачан:2 раза
Скачать  

04-12-2019 06:10 Тайна фермы Мессе Скачать торрент  

Название: Тайна фермы Мессе
Оригинальное название: La Horse
Год выпуска: 1970
Страна: Италия, Франция, Германия (ФРГ)
Жанр: криминал, триллер
Продолжительность: 01:20:18
Перевод: дублированный, профессиональный многоголосый

Режиссер: Пьер Гранье-Дефер
В ролях: Жан Габен, Дэниэль Ажоре, Мишель Барби, Кристиан Барбье, Пьер Дюкс, Армандо Франчоли, Жюльен Гиомар, Рейнхард Коллдехофф, Феликс Мартен, Элеонор Херт, Марк Порель

О фильме: Действие происходит во французской провинции в конце 60-х годов. Огюст Маржоллен - пожилой состоятельный фермер с тяжёлым и непреклонным характером, строг со своими домочадцами (две дочери, два зятя, два внука) и искренне предан своему крестьянскому уделу. В глубине души он, однако, справедлив и добр. Он приютил бывшего десантника по прозвищу Бьен-Фу, уволенного из армии после поражения Франции в Индокитае и оставшегося без гроша. Однажды Бьен-Фу обнаруживает спрятанный под полом охотничьего домика во владениях Маржоллена увесистый пакет с героином. Оказывается, родной внук Маржоллена, живущий на ферме и не знающий, чем заняться в жизни, по глупости, связался с наркомафией. Огюст уничтожает находку. Члена банды наркодилеров, приехавшего забрать груз, он убивает и умело заметает следы; внука до поры поселяет в подвале, строжайше запретив высовываться наружу. Наркоторговцы, не получив свой товар, принимаются терроризировать Маржоллена. Они убивают скот, портят имущество, наконец, насилуют его внучку, но он ничего не предпринимает и даже соглашается отдать бандитам внука и наркотики. Когда же банда в полном составе заявляется ночью на ферму, она попадает в хорошо подготовленную засаду. Огюст со своими зятьями и Бьен-Фу уничтожают всех до одного... (Википедия).



Качество: BDRip 1080p
Формат: MKV
Видео: MPEG-4 AVC, 15 Mбит/с, 1764x1080, 24 Кадр/с
Аудио 1: русский, AC3, 192 kbps, 2 ch, 48 kHz [дублированный]
Аудио 2: русский, AC3, 192 kbps, 2 ch, 48 kHz [закадровый многоголосый, 5 канал]
Аудио 3: французский, DTS, 1509 kbps, 2 ch, 48 kHz [оригинал]
Субтитры: английские
Главы/чаптеры
Общее
Уникальный идентификатор : 223601471477422316819848157311979829468 (0xA83813B32CC489BF82F5082D9EA138DC)
Полное имя : D:\Video\Тайна фермы Мессе.1970.BDRip 1080p by msltel.mkv
Формат : Matroska
Версия формата : Version 4
Размер файла : 9,47 Гбайт
Продолжительность : 1 ч. 20 м.
Общий поток : 16,9 Мбит/сек
Название фильма : Rip by msltel
Дата кодирования : UTC 2019-12-04 02:24:36
Программа кодирования : mkvmerge v8.2.0 ('World of Adventure') 64bit
Библиотека кодирования : libebml v1.3.1 + libmatroska v1.4.2

Видео
Идентификатор : 1
Формат : AVC
Формат/Информация : Advanced Video Codec
Профиль формата : High@L4.1
Настройки формата : CABAC / 4 Ref Frames
Параметр CABAC формата : Да
Параметр RefFrames формата : 4 кадра
Идентификатор кодека : V_MPEG4/ISO/AVC
Продолжительность : 1 ч. 20 м.
Битрейт : 15,0 Мбит/сек
Ширина : 1764 пикселя
Высота : 1080 пикселей
Соотношение сторон : 16:10
Режим частоты кадров : Постоянный
Частота кадров : 24,000 кадра/сек
Цветовое пространство : YUV
Субдискретизация насыщенности : 4:2:0
Битовая глубина : 8 бит
Тип развёртки : Прогрессивная
Бит/(Пиксели*Кадры) : 0.328
Размер потока : 8,41 Гбайт (89%)
Библиотека кодирования : x264 core 157 r2935 545de2f
Настройки программы : cabac=1 / ref=4 / deblock=1:-2:-2 / analyse=0x3:0x113 / me=umh / subme=11 / psy=1 / psy_rd=1.00:0.15 / mixed_ref=1 / me_range=32 / chroma_me=1 / trellis=2 / 8x8dct=1 / cqm=0 / deadzone=21,11 / fast_pskip=0 / chroma_qp_offset=-3 / threads=6 / lookahead_threads=1 / sliced_threads=0 / nr=0 / decimate=1 / interlaced=0 / bluray_compat=0 / constrained_intra=0 / bframes=12 / b_pyramid=2 / b_adapt=2 / b_bias=0 / direct=1 / weightb=1 / open_gop=0 / weightp=2 / keyint=230 / keyint_min=23 / scenecut=40 / intra_refresh=0 / rc_lookahead=40 / rc=crf / mbtree=0 / crf=20.0 / qcomp=0.60 / qpmin=0 / qpmax=69 / qpstep=4 / vbv_maxrate=50000 / vbv_bufsize=62500 / crf_max=0.0 / nal_hrd=none / filler=0 / ip_ratio=1.40 / pb_ratio=1.30 / aq=1:1.00
Язык : French
Default : Да
Forced : Нет

Аудио #1
Идентификатор : 2
Формат : AC-3
Формат/Информация : Audio Coding 3
Коммерческое название : Dolby Digital
Идентификатор кодека : A_AC3
Продолжительность : 1 ч. 20 м.
Вид битрейта : Постоянный
Битрейт : 192 Кбит/сек
Каналы : 2 канала
ChannelLayout : L R
Частота : 48,0 КГц
Частота кадров : 31,250 кадров/сек (1536 SPF)
Метод сжатия : С потерями
Размер потока : 110 Мбайт (1%)
Заголовок : DUB
Язык : Russian
ServiceKind/String : Complete Main
Default : Да
Forced : Нет

Аудио #2
Идентификатор : 3
Формат : AC-3
Формат/Информация : Audio Coding 3
Коммерческое название : Dolby Digital
Идентификатор кодека : A_AC3
Продолжительность : 1 ч. 20 м.
Вид битрейта : Постоянный
Битрейт : 192 Кбит/сек
Каналы : 2 канала
ChannelLayout : L R
Частота : 48,0 КГц
Частота кадров : 31,250 кадров/сек (1536 SPF)
Метод сжатия : С потерями
Размер потока : 110 Мбайт (1%)
Заголовок : MVO 5 канал
Язык : Russian
ServiceKind/String : Complete Main
Default : Нет
Forced : Нет

Аудио #3
Идентификатор : 4
Формат : DTS
Формат/Информация : Digital Theater Systems
Идентификатор кодека : A_DTS
Продолжительность : 1 ч. 20 м.
Вид битрейта : Постоянный
Битрейт : 1509 Кбит/сек
Каналы : 2 канала
ChannelLayout : L R
Частота : 48,0 КГц
Частота кадров : 93,750 кадра/сек (512 SPF)
Битовая глубина : 16 бит
Метод сжатия : С потерями
Размер потока : 867 Мбайт (9%)
Заголовок : original
Язык : French
Default : Нет
Forced : Нет

Текст
Идентификатор : 5
Формат : UTF-8
Идентификатор кодека : S_TEXT/UTF8
Идентификатор кодека/Информация : UTF-8 Plain Text
Продолжительность : 1 ч. 16 м.
Битрейт : 30 бит/сек
ElementCount : 468
Размер потока : 16,7 Кбайт (0%)
Заголовок : английские
Язык : English
Default : Нет
Forced : Нет

Меню
00:00:00.000 : en:Chapter 1
00:10:44.290 : en:Chapter 2
00:20:07.500 : en:Chapter 3
00:27:31.458 : en:Chapter 4
00:37:48.791 : en:Chapter 5
00:47:44.791 : en:Chapter 6
00:57:36.000 : en:Chapter 7
01:09:53.375 : en:Chapter 8
piratbit.pw



Скачать Тайна фермы Мессе через торрент https://a.radikal.ru/a20/1912/07/be388d890265.jpg Скачать фильм Тайна фермы Мессе через торрент бесплантно в хорошем качестве О фильме: Действие происходит во французской провинции в конце 60-х годов. Огюст Маржоллен - пожилой состоятельный фермер с тяжёлым и ... 5 10 1
Торрент: Зарегистрирован [2019-12-04 06:10] · скачан: 2 раз
Статус: √ проверено
Размер: 9.47 GB
Как cкачать? Как скачать Тайна фермы Мессе через торрент | qTorrent

% Раздел Тема Автор DL S | L
Классика зарубежного кино [ 3.17 GB ] Тайна фермы Мессе / La Horse [1970 BDRip 720p by msltel] DUB MVO msltel Скачать
1 | 0
Классика зарубежного кино [ 1.81 GB ] Тайна фермы Мессе / La Horse [1970 BDRip by msltel] DUB MVO msltel Скачать
1 | 0

28-11-2019 20:33  

Отключить всю рекламу на сайте

    Дорогой пользователь! Огромная просьба, поблагодарите релизера, оцените раздачу и оставьте свои комментарий, если Вы скачали Тайна фермы Мессе через торрент бесплатно! Внесите свою лепту в развитие PiratBit!
    Комментировать посты могут только пользователи прошедшие не сложную регистрацию
    Показать сообщения:    

    Тайна фермы Мессе через торрент
    Скачать бесплатно Тайна фермы Мессе
    Тайна фермы Мессе скачать торрент
    Тайна фермы Мессе смотреть онлайн
    Cкачать фильм Тайна фермы Мессе бесплатно
    Тайна фермы Мессе скачать торрент в хорошем качестве
    Тайна фермы Мессе смотреть онлайн бесплатно в хорошем качестве


    Вы не можете начинать темы
    Вы не можете отвечать на сообщения
    Вы не можете редактировать свои сообщения
    Вы не можете удалять свои сообщения
    Вы не можете голосовать в опросах
    Вы не можете прикреплять файлы к сообщениям
    Вы можете скачивать файлы