новый адрес
Ссылка на приватное зеркало всего за 1$. Внимание количество ограничено!!!

iTunes

1+1

iTunes

мы

WEB-DL

1

iTunes

Чернобыль

iTunes

Ральф против интернета

Лицензия

ПШазам

Лицензия

Оно 2

Лицензия

30
pack

Вам бонус

ВАЖНО

!!Акция!!

Alien_RageХит недели

RePack

Resident Evil 21

ИГРА 18+

pack

RePack

jed

!!Акция!!

Alien_Rage

RePack

fifa19

RePack

Assassins Creed: Odyssey

RePack

NEED FOR SPEED™ PAYBACK

3 сезон

9 сезон

Бесстыжие 9 сезон

Все сериалы

все сериалы на PB.wtf

RePack

FAR CRY 5
Ребята, катастрофически не хватает 1900р. для оплаты серверов за Октябрь (всвязи с блокировками трафик упал в 3 раза), 1-2р., выручайте.
  

Дом с прислугой / Servant / Сезон: 1 / Серии: 1-4 из 10 (М. Найт Шьямалан, Лиза Брюльманн) [2019, ужасы, триллер, драма, WEB-DLRip] MVO [Jaskier] piratbit.pw

Дом с прислугой через торрент piratbit.pw

Раздают: 1 [ 0 KB/s ]
Размер: 1.58 GB | Добавлен: 2 д. 6 ч. назад | Торрент скачан:8 раз
Скачать  

02-12-2019 16:47 Дом с прислугой Скачать торрент  

Дом с прислугой / Servant
Год выпуска: 2019
Страна: США
Жанр: ужасы, триллер, драма
Продолжительность: ~ 00:35:00
Перевод: Профессиональный (многоголосый) | Jaskier
Субтитры: отсутствуют

Режиссер: М. Найт Шьямалан, Лиза Брюльманн

rating

В ролях: Лорен Эмброуз, Тоби Кеббелл, Нелл Тайгер Фри, Руперт Гринт, Филлип Джеймс Браннон, С.Дж. Сын, Джеффри Моуэри, Родни Джонс, Сара Бирманн, Рональд Мелтон Брэкстон

Описание: У супругов Тёрнер случилась беда - они потеряли трёхмесячного малыша. Дороти никак не может оправиться от трагедии, поэтому продолжает нянчить куклу и даже нанимает для этих целей няню, девушку Лиенн. А та, как будто, не замечает странностей и обращается с куклой как с настоящим младенцем.

Качество: WEB-DLRip
Формат: AVI

Видео: XviD, ~ 1400 kbps, 704x352, 23.976 fps
Аудио 1: MP3, 48,0 КГц, 2 ch, 128 kbps - RUS
Аудио 2: MP3, 48,0 КГц, 2 ch, 128 kbps - ENG
скриншот  скриншот  скриншот  

Общее
Полное имя : D:\Servant. Season 1 (400p l Jaskier)\Servant.S01E01.400p.Jaskier.avi
Формат : AVI
Формат/Информация : Audio Video Interleave
Размер файла : 439 Мбайт
Продолжительность : 34 м. 58 с.
Общий поток : 1754 Кбит/сек
Программа кодирования : VirtualDubMod 1.5.10.3 | www.virtualdub-fr.org || (build 2550/release)
Библиотека кодирования : VirtualDubMod build 2550/release

Видео
Идентификатор : 0
Формат : MPEG-4 Visual
Профиль формата : Advanced Simple@L5
Параметр BVOP формата : 2
Параметр QPel формата : Нет
Параметр GMC формата : Без точки перехода
Параметр матрицы формата : Выборочная
Идентификатор кодека : XVID
Идентификатор кодека/Подсказка : XviD
Продолжительность : 34 м. 58 с.
Битрейт : 1418 Кбит/сек
Ширина : 704 пикселя
Высота : 352 пикселя
Соотношение сторон : 2,000
Частота кадров : 23,976 (23976/1000) кадра/сек
Цветовое пространство : YUV
Субдискретизация насыщенности : 4:2:0
Битовая глубина : 8 бит
Тип развёртки : Прогрессивная
Метод сжатия : С потерями
Бит/(Пиксели*Кадры) : 0.239
Размер потока : 355 Мбайт (81%)
Библиотека кодирования : XviD 73

Аудио #1
Идентификатор : 1
Формат : MPEG Audio
Версия формата : Version 1
Профиль формата : Layer 3
Режим : Joint stereo
Расширение режима : MS Stereo
Идентификатор кодека : 55
Идентификатор кодека/Подсказка : MP3
Продолжительность : 34 м. 58 с.
Вид битрейта : Постоянный
Битрейт : 128 Кбит/сек
Каналы : 2 канала
Частота : 48,0 КГц
Метод сжатия : С потерями
Размер потока : 32,0 Мбайт (7%)
Выравнивание : Соединение по промежуткам

Аудио #2
Идентификатор : 2
Формат : MPEG Audio
Версия формата : Version 1
Профиль формата : Layer 3
Режим : Joint stereo
Идентификатор кодека : 55
Идентификатор кодека/Подсказка : MP3
Продолжительность : 34 м. 58 с.
Вид битрейта : Постоянный
Битрейт : 128 Кбит/сек
Каналы : 2 канала
Частота : 48,0 КГц
Метод сжатия : С потерями
Размер потока : 32,0 Мбайт (7%)
Выравнивание : Соединение по промежуткам

Когда раздача ведётся путём добавления новых серий, при каждом добавлении создётся новый торрент. Чтобы начать докачку новой серии, пользователям необходимо сделать следующее:
(1) остановить скачивание,
(2) удалить старый торрент у себя из клиента (старые серии удалять не надо),
(3) скачать новый торрент и запустить его у себя в клиенте вместо старого, при этом указать клиенту путь в старую папку, куда и должно происходить скачивание новых серий.
Ваш клиент при этом должен произвести хеширование (проверку) старой папки (если не производит сам - помогите ему сделать это), и будет докачивать только те серии, которых у вас ещё нет. Старые серии при этом не удаляются, а продолжают раздаваться!
Eсли вы уже удалили старые серии, то предотвратить повторную закачку старых серий можно, отжав галочку в соответсвующих местах при запуске нового торрента. По возможности, желательно не удалять старые серии как можно дольше, чтобы релизёр не столько продолжал раздавать старые серии, а смог сконцентрироваться на новых.
piratbit.pw



Скачать Дом с прислугой через торрент https://i111.fastpic.ru/big/2019/1202/79/4170283dff618b50a53f9ba23a39c179.png Скачать фильм Дом с прислугой через торрент бесплантно в хорошем качестве Описание: У супругов Тёрнер случилась беда - они потеряли трёхмесячного малыша. Дороти никак не может оправиться от трагедии, поэтому ... 10 10 2
Торрент: Зарегистрирован [2019-12-08 05:02] · скачан: 8 раз
Статус: √ проверено
Размер: 1.58 GB
Как cкачать? Как скачать Дом с прислугой через торрент | qTorrent

% Раздел Тема Автор DL S | L
T Зарубежные сериалы [ 6.9 GB ] Дом с прислугой / Servant / Сезон: 1 / Серии: 1-4 из 10 [2019 WEBRip 1080p] MVO [Octopus] bober100 Скачать
2 | 0
Зарубежные сериалы [ 4.62 GB ] Дом с прислугой / Прислуга / Servant / Сезон: 1 / Серии: 1-4 из 10 [2019 WEB-DL 720p] 4xMVO [NewStudio Jaskier AlexFilm TVShows] bober100 Скачать
1 | 0
Зарубежные сериалы [ 9.88 GB ] Дом с прислугой / Servant / Сезон: 1 / Серии: 1-4 из 10 [2019 WEB-DL 1080p] MVO [Jaskier] bober100 Скачать
2 | 0
Зарубежные сериалы [ 3.31 GB ] Дом с прислугой / Servant / Сезон: 1 / Серии: 1-4 из 10 [2019 WEB-DL 720p] MVO [Jaskier] bober100 Скачать
1 | 0
Зарубежные сериалы [ 3.47 GB ] Дом с прислугой / Servant / Сезон: 1 / Серии: 1-4 из 10 [2019 WEB-DL 720p] [MVO] killermax2013 Скачать
2 | 0
Зарубежные сериалы [ 10.23 GB ] Дом с прислугой / Servant / Сезон: 1 / Серии: 1-4 из 10 [2019 WEB-DL 1080p] [MVO] killermax2013 Скачать
2 | 0
Зарубежные сериалы [ 3.32 GB ] Дом с прислугой / Servant / Сезон: 1 / Серии: 1-4 из 10 [2019 WEB-DL 720p] [MVO] killermax2013 Скачать
3 | 1

28-11-2019 20:33  

Отключить всю рекламу на сайте

    Дорогой пользователь! Огромная просьба, поблагодарите релизера, оцените раздачу и оставьте свои комментарий, если Вы скачали Дом с прислугой через торрент бесплатно! Внесите свою лепту в развитие PiratBit!
    Комментировать посты могут только пользователи прошедшие не сложную регистрацию
    Показать сообщения:    

    Дом с прислугой через торрент
    Скачать бесплатно Дом с прислугой
    Дом с прислугой скачать торрент
    Дом с прислугой смотреть онлайн
    Cкачать фильм Дом с прислугой бесплатно
    Дом с прислугой скачать торрент в хорошем качестве
    Дом с прислугой смотреть онлайн бесплатно в хорошем качестве


    Вы не можете начинать темы
    Вы не можете отвечать на сообщения
    Вы не можете редактировать свои сообщения
    Вы не можете удалять свои сообщения
    Вы не можете голосовать в опросах
    Вы не можете прикреплять файлы к сообщениям
    Вы можете скачивать файлы