Ссылка на приватное зеркало всего за 1$. Внимание количество ограничено!!!


iTunes

1+1

iTunes

мы

WEB-DL

1

iTunes

Чернобыль

iTunes

Ральф против интернета

Лицензия

ПШазам

Лицензия

Оно 2

WEB-DL

30
pack

Вам бонус

ВАЖНО

!!Акция!!

Alien_RageХит недели

RePack

Resident Evil 21

ИГРА 18+

pack

RePack

jed

!!Акция!!

Alien_Rage

RePack

fifa19

RePack

Assassins Creed: Odyssey

RePack

NEED FOR SPEED™ PAYBACK

4 сезон

9 сезон

Бесстыжие 9 сезон

Все сериалы

все сериалы на PB.wtf

RePack

FAR CRY 5
Ребята, катастрофически не хватает 1900р. для оплаты серверов за Октябрь (всвязи с блокировками трафик упал в 3 раза), 1-2р., выручайте.
  

Институтки на кинопробах 3 (Евгений Распутин) [2002 г., Casting, Masturbation, Orgy, All Sex, Lesbians, Oral, DVDRip, Русский] piratbit.pw

Институтки на кинопробах 3 через торрент piratbit.pw

Раздают: 7 [ 0 KB/s ]
Размер: 689 MB | Добавлен: 13 д. назад | Торрент скачан:102 раза
Скачать  

02-12-2019 15:48 Институтки на кинопробах 3 Скачать торрент  

Институтки на кинопробах 3Год выпуска: 2002
Страна: Россия
Жанр: Casting, Masturbation, Orgy, All Sex, Lesbians, Oral
Продолжительность: 01:59:25
Перевод: Не требуется (русский)
Субтитры: отсутствуют

Студия: SPCompany
Режиссер: Евгений Распутин
Продюсер: Сергей Прянишников
В ролях: Маруся, Оля, Катя, Марина

Описание: Порно кастинг четырех русских девчонок, которые учатся в институте!
Кастинг Кати, которая учится в университете на специалиста международных отношений.
Кастинг Оли, которая учится в университете на юриста.
Кастинг Марины, которая учится в университете на педагога русского языка.
Кастинг Маруси учится в гуманитарном университете...

Качество: DVDRip
Формат: AVI
Видео кодек: DivX
Аудио кодек: MP3
Видео: 512x384 (4:3), 25 fps ~ 689 Kbps
Аудио: 48 KHz, 2 ch ~ 112 Kb/s





Общее
Полное имя : G:\wot\Институтки на кинопробах Часть 3.avi
Формат : AVI
Формат/Информация : Audio Video Interleave
Размер файла : 689 Мбайт
Продолжительность : 1 ч. 59 м.
Общий поток : 807 Кбит/сек
Программа кодирования : Nandub v0.27
Библиотека кодирования : Nandub build 1718/release

Видео
Идентификатор : 0
Формат : MPEG-4 Visual
Параметр BVOP формата : 1
Параметр QPel формата : Нет
Параметр GMC формата : Без точки перехода
Параметр матрицы формата : Default (H.263)
Режим смешивания : Сжатый битовый поток
Идентификатор кодека : DX50
Идентификатор кодека/Подсказка : DivX 5
Продолжительность : 1 ч. 59 м.
Битрейт : 689 Кбит/сек
Ширина : 512 пикселей
Высота : 384 пикселя
Соотношение сторон : 4:3
Частота кадров : 25,000 кадров/сек
Цветовое пространство : YUV
Субдискретизация насыщенности : 4:2:0
Битовая глубина : 8 бит
Тип развёртки : Прогрессивная
Метод сжатия : С потерями
Бит/(Пиксели*Кадры) : 0.140
Размер потока : 589 Мбайт (85%)
Библиотека кодирования : DivX 5.0.5 (UTC 2003-04-24)

Аудио
Идентификатор : 1
Формат : MPEG Audio
Версия формата : Version 1
Профиль формата : Layer 3
Режим : Joint stereo
Расширение режима : MS Stereo
Идентификатор кодека : 55
Идентификатор кодека/Подсказка : MP3
Продолжительность : 1 ч. 59 м.
Вид битрейта : Постоянный
Битрейт : 112 Кбит/сек
Каналы : 2 канала
Частота : 48,0 КГц
Метод сжатия : С потерями
Размер потока : 95,7 Мбайт (14%)
Выравнивание : Разделение по промежуткам
Продолжительность промежутка : 500 мс. (12,50 видеокадров)
Время предзагрузки промежутка : 447 мс.

piratbit.pw



pack Скачать Институтки на кинопробах 3 через торрент http://i111.fastpic.ru/big/2019/1202/ea/775b56b27021a0a15fcc477be4dbc9ea.jpg Скачать фильм Институтки на кинопробах 3 через торрент бесплантно в хорошем качестве Описание: Порно кастинг четырех русских девчонок, которые учатся в институте!Кастинг Кати, которая учится в университете на специалиста ... 6.3 10 3
Info! Золотая раздача, скачанное не засчитывается.
Торрент: Зарегистрирован [2019-12-02 15:48] · скачан: 102 раз
Статус: √ проверено
Размер: 689 MB
Как cкачать? Как скачать Институтки на кинопробах 3 через торрент | qTorrent

28-11-2019 20:33  

Отключить всю рекламу на сайте

    Дорогой пользователь! Огромная просьба, поблагодарите релизера, оцените раздачу и оставьте свои комментарий, если Вы скачали Институтки на кинопробах 3 через торрент бесплатно! Внесите свою лепту в развитие PiratBit!
    Комментировать посты могут только пользователи прошедшие не сложную регистрацию
    Показать сообщения:    

    Институтки на кинопробах 3 через торрент
    Скачать бесплатно Институтки на кинопробах 3
    Институтки на кинопробах 3 скачать торрент
    Институтки на кинопробах 3 смотреть онлайн
    Cкачать фильм Институтки на кинопробах 3 бесплатно
    Институтки на кинопробах 3 скачать торрент в хорошем качестве
    Институтки на кинопробах 3 смотреть онлайн бесплатно в хорошем качестве


    Вы не можете начинать темы
    Вы не можете отвечать на сообщения
    Вы не можете редактировать свои сообщения
    Вы не можете удалять свои сообщения
    Вы не можете голосовать в опросах
    Вы не можете прикреплять файлы к сообщениям
    Вы можете скачивать файлы