Ссылка на приватное зеркало всего за 1$. Внимание количество ограничено!!!


iTunes

1+1

iTunes

мы

WEB-DL

1

iTunes

Чернобыль

iTunes

Ральф против интернета

Лицензия

ПШазам

Лицензия

Оно 2

WEB-DL

30
pack

Вам бонус

ВАЖНО

!!Акция!!

Alien_RageХит недели

RePack

Resident Evil 21

ИГРА 18+

pack

RePack

jed

!!Акция!!

Alien_Rage

RePack

fifa19

RePack

Assassins Creed: Odyssey

RePack

NEED FOR SPEED™ PAYBACK

4 сезон

9 сезон

Бесстыжие 9 сезон

Все сериалы

все сериалы на PB.wtf

RePack

FAR CRY 5
Ребята, катастрофически не хватает 1900р. для оплаты серверов за Октябрь (всвязи с блокировками трафик упал в 3 раза), 1-2р., выручайте.
  

Оно 2 / It Chapter Two (Андрес Мускетти) [2019, ужасы, BDRip-AVC] Dub [iTunes], MVO [HDRezka Studio] - ExKinoRay piratbit.pw

Оно 2 через торрент piratbit.pw

Раздают: 161 [ 2 MB/s ] Качают: 8 [ 3 MB/s ]
Размер: 3.13 GB | Добавлен: 13 д. назад | Торрент скачан:57 раз
Скачать  

02-12-2019 12:25 Оно 2 Скачать торрент  

Информация о фильме
Название: Оно 2
Оригинальное название: It Chapter Two
Год выхода: 2019
Жанр: Ужасы, экранизация
Режиссер: Андрес Мускетти
В ролях: Джессика Честейн, Джеймс МакЭвой, Билл Хэйдер, Айзая Мустафа, Джей Райан, Джеймс Рэнсон, Энди Бин, Билл Скарсгард, Джейден Мартелл, Уайатт Олефф, Джек Дилан Грейзер, Финн Вулфард, София Лиллис, Чоузен Джейкобс, Джереми Рэй Тейлор, Тич Грант, Николас Хэмилтон, Хавьер Ботет, Тейлор Фрэй, Молли Эткинсон, Люк Росслер, Джесс Вейкслер

rating

О фильме: Проходит 27 лет после первой встречи ребят с демоническим Пеннивайзом. Они уже выросли, и у каждого своя жизнь. Но неожиданно их спокойное существование нарушает странный телефонный звонок, который заставляет их вновь собраться вместе.

Страна: Канада, США
Студия: KatzSmith Productions, Lin Pictures, New Line Cinema
Продолжительность: 02:49:25
Перевод: Дублированный
Профессиональный многоголосый (HDRezka Studio) Присутствует ненормативная лексика

БЕЗ КАКОЙ-ЛИБО РЕКЛАМЫ!

Формат: MKV
Качество: BDRip-AVC
Видео: MPEG-4 AVC, 1024x428 (2.40:1), 23.976 fps, 1679 Kbps, 0.171 bit/pixel
Аудио #01: 48 kHz, AC3, 5.1, 384 Kbps | Дублированный | RUS |
Аудио #02: 48 kHz, AC3, 2.0, 192 Kbps | HDRezka Studio | RUS |
Аудио #03: 48 kHz, AC3, 5.1, 384 Kbps | Дублированный | UKR |
Субтитры: Русские (2 x Forced, 2 x full), украинские (Forced), английские
General
Unique ID : 221460422260319808405419744782433477482 (0xA69BB9D2CC67813C9DCC6F4B1679636A)
Complete name : F:\It.Chapter.Two.2019.2xRusBDRip.AVC.ExKinoRay.mkv
Format : Matroska
Format version : Version 2
File size : 3.13 GiB
Duration : 2 h 49 min
Overall bit rate : 2 641 kb/s
Movie name : It Chapter Two 2019 from ExKinoRay
Encoded date : UTC 2019-12-01 23:50:53
Writing application : mkvmerge v5.6.0 ('Kenya Kane') built on May 27 2012 16:44:04
Writing library : libebml v1.2.3 + libmatroska v1.3.0

Video
ID : 1
Format : AVC
Format/Info : Advanced Video Codec
Format profile : High@L4.1
Format settings, CABAC : Yes
Format settings, ReFrames : 12 frames
Codec ID : V_MPEG4/ISO/AVC
Duration : 2 h 49 min
Bit rate : 1 679 kb/s
Width : 1 024 pixels
Height : 428 pixels
Display aspect ratio : 2.40:1
Frame rate mode : Constant
Frame rate : 23.976 (23976/1000) FPS
Color space : YUV
Chroma subsampling : 4:2:0
Bit depth : 8 bits
Scan type : Progressive
Bits/(Pixel*Frame) : 0.160
Stream size : 1.93 GiB (62%)
Writing library : x264 core 152 r2851 ba24899
Encoding settings : cabac=1 / ref=12 / deblock=1:-2:-2 / analyse=0x3:0x113 / me=umh / subme=10 / psy=1 / psy_rd=1.01:0.05 / mixed_ref=1 / me_range=32 / chroma_me=1 / trellis=2 / 8x8dct=1 / cqm=0 / deadzone=21,11 / fast_pskip=0 / chroma_qp_offset=-3 / threads=12 / lookahead_threads=2 / sliced_threads=0 / nr=0 / decimate=0 / interlaced=0 / bluray_compat=0 / constrained_intra=0 / bframes=9 / b_pyramid=2 / b_adapt=2 / b_bias=0 / direct=3 / weightb=1 / open_gop=0 / weightp=2 / keyint=240 / keyint_min=23 / scenecut=40 / intra_refresh=0 / rc=2pass / mbtree=0 / bitrate=1679 / ratetol=1.0 / qcomp=0.60 / qpmin=0 / qpmax=51 / qpstep=4 / cplxblur=20.0 / qblur=0.5 / ip_ratio=1.40 / pb_ratio=1.30 / aq=1:1.00
Language : English
Default : Yes
Forced : No
Color range : Limited
Color primaries : BT.709
Transfer characteristics : BT.709
Matrix coefficients : BT.709

Audio #1
ID : 2
Format : AC-3
Format/Info : Audio Coding 3
Mode extension : CM (complete main)
Format settings, Endianness : Big
Codec ID : A_AC3
Duration : 2 h 49 min
Bit rate mode : Constant
Bit rate : 384 kb/s
Channel(s) : 6 channels
Channel positions : Front: L C R, Side: L R, LFE
Sampling rate : 48.0 kHz
Frame rate : 31.250 FPS (1536 spf)
Compression mode : Lossy
Stream size : 465 MiB (15%)
Title : Dub (iTunes)
Language : Russian
Default : Yes
Forced : No

Audio #2
ID : 3
Format : AC-3
Format/Info : Audio Coding 3
Mode extension : CM (complete main)
Format settings, Endianness : Big
Codec ID : A_AC3
Duration : 2 h 49 min
Bit rate mode : Constant
Bit rate : 192 kb/s
Channel(s) : 2 channels
Channel positions : Front: L R
Sampling rate : 48.0 kHz
Frame rate : 31.250 FPS (1536 spf)
Compression mode : Lossy
Stream size : 233 MiB (7%)
Title : MVO (HDRezka Studio)
Language : Russian
Default : No
Forced : No

Audio #3
ID : 4
Format : AC-3
Format/Info : Audio Coding 3
Mode extension : CM (complete main)
Format settings, Endianness : Big
Codec ID : A_AC3
Duration : 2 h 49 min
Bit rate mode : Constant
Bit rate : 384 kb/s
Channel(s) : 6 channels
Channel positions : Front: L C R, Side: L R, LFE
Sampling rate : 48.0 kHz
Frame rate : 31.250 FPS (1536 spf)
Compression mode : Lossy
Stream size : 465 MiB (15%)
Title : Dub
Language : Ukrainian
Default : No
Forced : No

Text #1
ID : 5
Format : UTF-8
Codec ID : S_TEXT/UTF8
Codec ID/Info : UTF-8 Plain Text
Title : Forced
Language : Russian
Default : Yes
Forced : No

Text #2
ID : 6
Format : UTF-8
Codec ID : S_TEXT/UTF8
Codec ID/Info : UTF-8 Plain Text
Title : Full
Language : Russian
Default : No
Forced : No

Text #3
ID : 7
Format : UTF-8
Codec ID : S_TEXT/UTF8
Codec ID/Info : UTF-8 Plain Text
Title : Full (FOCS)
Language : Russian
Default : No
Forced : No

Text #4
ID : 8
Format : UTF-8
Codec ID : S_TEXT/UTF8
Codec ID/Info : UTF-8 Plain Text
Title : Forced
Language : Ukrainian
Default : No
Forced : No

Text #5
ID : 9
Format : UTF-8
Codec ID : S_TEXT/UTF8
Codec ID/Info : UTF-8 Plain Text
Title : SDH
Language : English
Default : No
Forced : No

Menu
00:00:00.000 : en:Chapter 01
00:09:10.341 : en:Chapter 02
00:19:06.354 : en:Chapter 03
00:27:00.744 : en:Chapter 04
00:37:51.227 : en:Chapter 05
00:46:19.986 : en:Chapter 06
00:55:46.802 : en:Chapter 07
01:05:36.474 : en:Chapter 08
01:17:19.134 : en:Chapter 09
01:29:21.565 : en:Chapter 10
01:41:02.974 : en:Chapter 11
01:49:11.336 : en:Chapter 12
01:59:33.833 : en:Chapter 13
02:05:31.774 : en:Chapter 14
02:14:25.933 : en:Chapter 15
02:22:43.889 : en:Chapter 16
02:32:57.168 : en:Chapter 17
02:42:15.643 : en:Chapter 18
02:44:52.508 : en:Chapter 19


Релиз от:

Автор релиза: piratbit.pw



Скачать Оно 2 через торрент https://img15.lostpic.net/2019/11/19/cb673d0c161285191c2cfc850e10ffcd.jpg Скачать фильм Оно 2 через торрент бесплантно в хорошем качестве О фильме: Проходит 27 лет после первой встречи ребят с демоническим Пеннивайзом. Они уже выросли, и у каждого своя жизнь. Но неожиданно их ... 10 10 3
Info! Золотая раздача, скачанное не засчитывается.
Торрент: Зарегистрирован [2019-12-02 12:25] · скачан: 57 раз
Статус: √ проверено
Размер: 3.13 GB
Как cкачать? Как скачать Оно 2 через торрент | qTorrent

% Раздел Тема Автор DL S | L
Фильмы 2019 [DVDrip, WEB-DLRip, HDrip] (DUB, MVO) [ 3.27 GB ] Оно 2 / It Chapter Two [2019 WEB-DLRip-AVC] Dub MVO [HDRezka Studio] - ExKinoRay Enigma2010 Скачать
362 | 16
T Фильмы 2019 [DVDrip, WEB-DLRip, HDrip] (DUB, MVO) [ 2.18 GB ] Оно 2 / It Chapter Two [2019 WEB-DLRip] MVO [HDRezka Studio] - ExKinoRay Enigma2010 Скачать
97 | 4

28-11-2019 20:33  

Отключить всю рекламу на сайте

    Дорогой пользователь! Огромная просьба, поблагодарите релизера, оцените раздачу и оставьте свои комментарий, если Вы скачали Оно 2 через торрент бесплатно! Внесите свою лепту в развитие PiratBit!
    Комментировать посты могут только пользователи прошедшие не сложную регистрацию
    Показать сообщения:    

    Оно 2 через торрент
    Скачать бесплатно Оно 2
    Оно 2 скачать торрент
    Оно 2 смотреть онлайн
    Cкачать фильм Оно 2 бесплатно
    Оно 2 скачать торрент в хорошем качестве
    Оно 2 смотреть онлайн бесплатно в хорошем качестве


    Вы не можете начинать темы
    Вы не можете отвечать на сообщения
    Вы не можете редактировать свои сообщения
    Вы не можете удалять свои сообщения
    Вы не можете голосовать в опросах
    Вы не можете прикреплять файлы к сообщениям
    Вы можете скачивать файлы