Ссылка на приватное зеркало всего за 1$. Внимание количество ограничено!!!

iTunes

iTunes

iTunes

1

iTunes

iTunes

iTunes

iTunes

iTunes

30
pack

$ от Little Big

ВАЖНО

!!Акция!!

Alien_RageХит недели

RePack

Resident Evil 21

ИГРА 18+

pack

RePack

jed

!!Акция!!

Alien_Rage

RePack

fifa19

RePack

Assassins Creed: Odyssey

RePack

NEED FOR SPEED™ PAYBACK

4 сезон

9 сезон

Бесстыжие 9 сезон

Все сериалы

все сериалы на PB.wtf

RePack

FAR CRY 5
  

Дом с прислугой / Servant / Сезон: 1 / Серии: 1-10 из 10 (М. Найт Шьямалан, Лиза Брюльманн) [2019, ужасы, триллер, драма, WEB-DL 1080p] [MVO] (AlexFilm) piratbit.pw

Дом с прислугой через торрент piratbit.pw

Размер: 26.4 GB | Добавлен: 5 мес. 24 д. назад | Торрент скачан:14 раз
Скачать  

01-12-2019 20:09 Дом с прислугой Скачать торрент  

Дом с прислугой / Servant
Год выпуска: 2019
Страна: США
Жанр: ужасы, триллер, драма
Продолжительность: ~ 00:35:00
Озвучание: Профессиональное (многоголосое закадровое) * AlexFilm*

Режиссер: М. Найт Шьямалан, Лиза Брюльманн

В ролях: Лорен Эмброуз, Тоби Кеббелл, Нелл Тайгер Фри, Руперт Гринт, Филлип Джеймс Браннон, С.Дж. Сын, Джеффри Моуэри, Родни Джонс, Сара Бирманн, Рональд Мелтон Брэкстон

Описание: У супругов Тёрнер случилась беда - они потеряли трёхмесячного малыша. Дороти никак не может оправиться от трагедии, поэтому продолжает нянчить куклу и даже нанимает для этих целей няню, девушку Лиенн. А та, как будто, не замечает странностей и обращается с куклой как с настоящим младенцем.

rating

скриншот  

Качество: WEB-DL 1080p
Формат: MKV
Видео: AVC, 1920x960 (2.000), 23.976 fps, ~ 10 Mbps
Аудио №1: AC3, 48,0 kHz, 6 ch, 384 kbps | AlexFilm
Аудио №2: AC3, 48,0 kHz, 6 ch, 640 kbps | Original
Аудио №3: EAC3+Atmos, 48,0 kHz, 6 ch, 768 kbps | Original
Субтитры: Русские (Forced, Full |«Apple TV+»|, английские (Full, SDH)
Перевод: Константин Кривоногов
Монтаж и сведение звука: Герман Карика

Роли озвучивали:
Наталья Долгова
Ляна Сибирцева
Кирилл Патрино
Михаил Цареградский
Алексей Никитин
скриншот   скриншот   скриншот  

Complete name : D:\Servant_(s01)_AlexFilm_1080p\Servant.2019.S01E01.Reborn.1080p.ATVP.WEB-DL.DDP5.1.x264-CasStudio_EniaHD.mkv
Format : Matroska
Format version : Version 4
File size : 2.92 GiB
Duration : 34 min 58 s
Overall bit rate : 11.9 Mb/s
Encoded date : UTC 2020-01-11 23:17:21
Writing application : mkvmerge v31.0.0 ('Dolores In A Shoestand') 64-bit
Writing library : libebml v1.3.6 + libmatroska v1.4.9

Video
ID : 1
Format : AVC
Format/Info : Advanced Video Codec
Format profile : High@L4
Format settings : CABAC / 4 Ref Frames
Format settings, CABAC : Yes
Format settings, Reference : 4 frames
Codec ID : V_MPEG4/ISO/AVC
Duration : 34 min 58 s
Bit rate : 10.1 Mb/s
Width : 1 920 pixels
Height : 960 pixels
Display aspect ratio : 2.000
Frame rate mode : Constant
Frame rate : 23.976 (24000/1001) FPS
Color space : YUV
Chroma subsampling : 4:2:0
Bit depth : 8 bits
Scan type : Progressive
Bits/(Pixel*Frame) : 0.229
Stream size : 2.48 GiB (85%)
Title : Release by EniaHD
Language : English
Default : Yes
Forced : No
Color range : Limited
Color primaries : BT.709
Transfer characteristics : BT.709
Matrix coefficients : BT.709

Audio #1
ID : 2
Format : AC-3
Format/Info : Audio Coding 3
Commercial name : Dolby Digital
Codec ID : A_AC3
Duration : 34 min 58 s
Bit rate mode : Constant
Bit rate : 384 kb/s
Channel(s) : 6 channels
Channel layout : L R C LFE Ls Rs
Sampling rate : 48.0 kHz
Frame rate : 31.250 FPS (1536 SPF)
Bit depth : 16 bits
Compression mode : Lossy
Stream size : 96.1 MiB (3%)
Title : AlexFilm
Language : Russian
Service kind : Complete Main
Default : Yes
Forced : No

Audio #2
ID : 3
Format : AC-3
Format/Info : Audio Coding 3
Commercial name : Dolby Digital
Codec ID : A_AC3
Duration : 34 min 58 s
Bit rate mode : Constant
Bit rate : 640 kb/s
Channel(s) : 6 channels
Channel layout : L R C LFE Ls Rs
Sampling rate : 48.0 kHz
Frame rate : 31.250 FPS (1536 SPF)
Bit depth : 16 bits
Compression mode : Lossy
Stream size : 160 MiB (5%)
Language : English
Service kind : Complete Main
Default : No
Forced : No

Audio #3
ID : 4
Format : E-AC-3 JOC
Format/Info : Enhanced AC-3 with Joint Object Coding
Commercial name : Dolby Digital Plus with Dolby Atmos
Codec ID : A_EAC3
Duration : 34 min 58 s
Bit rate mode : Constant
Bit rate : 768 kb/s
Channel(s) : 6 channels
Channel layout : L R C LFE Ls Rs
Sampling rate : 48.0 kHz
Frame rate : 31.250 FPS (1536 SPF)
Compression mode : Lossy
Stream size : 192 MiB (6%)
Language : English
Service kind : Complete Main
Default : No
Forced : No
Complexity index : 16
Number of dynamic objects : 15
Bed channel count : 1 channel
Bed channel configuration : LFE

Text #1
ID : 5
Format : UTF-8
Codec ID : S_TEXT/UTF8
Codec ID/Info : UTF-8 Plain Text
Duration : 11 min 39 s
Bit rate : 1 b/s
Count of elements : 2
Stream size : 90.0 Bytes (0%)
Title : Forced
Language : Russian
Default : Yes
Forced : No

Text #2
ID : 6
Format : UTF-8
Codec ID : S_TEXT/UTF8
Codec ID/Info : UTF-8 Plain Text
Duration : 32 min 27 s
Bit rate : 68 b/s
Count of elements : 320
Stream size : 16.4 KiB (0%)
Title : Full |Apple TV+|
Language : Russian
Default : No
Forced : No

Text #3
ID : 7
Format : UTF-8
Codec ID : S_TEXT/UTF8
Codec ID/Info : UTF-8 Plain Text
Duration : 31 min 19 s
Bit rate : 46 b/s
Count of elements : 310
Stream size : 10.8 KiB (0%)
Title : Full
Language : English
Default : No
Forced : No

Text #4
ID : 8
Format : UTF-8
Codec ID : S_TEXT/UTF8
Codec ID/Info : UTF-8 Plain Text
Duration : 33 min 52 s
Bit rate : 49 b/s
Count of elements : 374
Stream size : 12.2 KiB (0%)
Title : SDH
Language : English
Default : No
Forced : No

Внимание! Раздача ведётся путём добавления новых серий; при каждом добавлении создаётся новый торрент. Чтобы начать докачку новой серии, пользователям необходимо сделать следующее:
(1) остановить скачивание,
(2) удалить старый торрент у себя из клиента (старые серии удалять не надо),
(3) скачать новый торрент и запустить его у себя в клиенте вместо старого, при этом указать клиенту путь в старую папку куда и должно происходить скачивание новых серий.

Ваш клиент при этом должен произвести хеширование (проверку) старой папки (если не производит сам - помогите ему сделать это), и будет докачивать только те серии которых у вас ещё нет. Старые серии при этом не удаляются, а продолжают раздаваться!

Eсли вы уже удалили старые серии, то предотвратить повторную закачку старых серий можно, отжав галочку в соответсвующих местах при запуске нового торрента. По возможности, желательно не удалять старые серии как можно дольше чтобы релизёр не столько продолжал раздавать старые серии, а смог сконцентрироваться на новых.
piratbit.pw



Скачать Дом с прислугой через торрент https://i111.fastpic.ru/big/2019/1128/b3/6e387f170d11302017f89f1d22ecf7b3.jpg Скачать фильм Дом с прислугой через торрент бесплантно в хорошем качестве Описание: У супругов Тёрнер случилась беда - они потеряли трёхмесячного малыша. Дороти никак не может оправиться от трагедии, поэтому ... 10 10 4
Торрент: Зарегистрирован [2020-01-18 07:25] · скачан: 14 раз
Статус: √ проверено
Размер: 26.4 GB
Как cкачать? Как скачать Дом с прислугой через торрент | qTorrent

% Раздел Тема Автор DL S | L
Зарубежные сериалы [ 11.41 GB ] Дом с прислугой / Прислуга / Servant / Сезон: 1 / Серии: 1-10 из 10 [2019 WEB-DL 720p] 4xMVO [NewStudio Jaskier AlexFilm TVShows] bober100 Скачать
2 | 0
Зарубежные сериалы [ 8.2 GB ] Дом с прислугой / Servant / Сезон: 1 / Серии: 1-10 из 10 [2019 WEB-DL 720p] MVO [Jaskier] bober100 Скачать
1 | 0
Зарубежные сериалы [ 6.03 GB ] Дом с прислугой / Servant / Сезон: 1 / Серии: 1-10 из 10 [2019 WEB-DLRip] [DVO] killermax2013 Скачать
1 | 0
Зарубежные сериалы [ 9.37 GB ] Дом с прислугой / Servant / Сезон: 1 / Серии: 1-10 из 10 [2019 WEB-DL 720p] [DVO] killermax2013 Скачать
1 | 0
Зарубежные сериалы [ 3.98 GB ] Дом с прислугой / Servant / Сезон: 1 / Серии: 1-10 из 10 [2019 WEB-DLRip] MVO [Jaskier] bober100 Скачать
1 | 0
Зарубежные сериалы [ 24.45 GB ] Дом с прислугой / Servant / Сезон: 1 / Серии: 1-10 из 10 [2019 WEB-DL 1080p] MVO [Jaskier] bober100 Скачать
1 | 0
Зарубежные сериалы [ 9.17 GB ] Дом с прислугой / Servant / Сезон: 1 / Серии: 1-10 из 10 [2019 WEB-DL 720p] [MVO] killermax2013 Скачать
1 | 0

28-11-2019 20:33  

Отключить всю рекламу на сайте

    Дорогой пользователь! Огромная просьба, поблагодарите релизера, оцените раздачу и оставьте свои комментарий, если Вы скачали Дом с прислугой через торрент бесплатно! Внесите свою лепту в развитие PiratBit!
    Комментировать посты могут только пользователи прошедшие не сложную регистрацию
    Показать сообщения:    

    Дом с прислугой через торрент
    Скачать бесплатно Дом с прислугой
    Дом с прислугой скачать торрент
    Дом с прислугой смотреть онлайн
    Cкачать фильм Дом с прислугой бесплатно
    Дом с прислугой скачать торрент в хорошем качестве
    Дом с прислугой смотреть онлайн бесплатно в хорошем качестве


    Вы не можете начинать темы
    Вы не можете отвечать на сообщения
    Вы не можете редактировать свои сообщения
    Вы не можете удалять свои сообщения
    Вы не можете голосовать в опросах
    Вы не можете прикреплять файлы к сообщениям
    Вы можете скачивать файлы