Ссылка на приватное зеркало всего за 1$. Внимание количество ограничено!!!


iTunes

1+1

iTunes

мы

WEB-DL

1

iTunes

Чернобыль

iTunes

Ральф против интернета

Лицензия

ПШазам

Лицензия

Оно 2

WEB-DL

30
pack

Вам бонус

ВАЖНО

!!Акция!!

Alien_RageХит недели

RePack

Resident Evil 21

ИГРА 18+

pack

RePack

jed

!!Акция!!

Alien_Rage

RePack

fifa19

RePack

Assassins Creed: Odyssey

RePack

NEED FOR SPEED™ PAYBACK

4 сезон

9 сезон

Бесстыжие 9 сезон

Все сериалы

все сериалы на PB.wtf

RePack

FAR CRY 5
Ребята, катастрофически не хватает 1900р. для оплаты серверов за Октябрь (всвязи с блокировками трафик упал в 3 раза), 1-2р., выручайте.
  

Яна+Янко (Наталья Меркулова) [2017, Семейный, комедия, WEB-DL 1080p] [iTunes] piratbit.pw

Яна+Янко через торрент piratbit.pw

Раздают: 5 [ 0 KB/s ]
Размер: 3.32 GB | Добавлен: 13 д. назад | Торрент скачан:61 раз
Скачать  

01-12-2019 12:37 Яна+Янко Скачать торрент  

Яна+Янко
Год выпуска: 2017
Страна: Россия
Жанр: Семейный, комедия
Продолжительность: 01:36:33
Перевод: Не требуется | iTunes
Субтитры: отсутствуют

Режиссер: Наталья Меркулова

rating

В ролях: Олеся Судзиловская, Даниль Зинатуллин, Максим Виторган, Артур Смольянинов, Владимир Мишуков, Александр Ревва, Тинатин Далакишвили, Екатерина Стеблина, Наталья Иохвидова, Кирилл Каганович

Описание: Яна Титова - весьма успешная бизнес-леди, главный редактор модного глянцевого журнала. Она считает себя самодостаточной, состоявшейся в жизни женщиной и поддерживает "чайл-фри". Яну совершенно не беспокоит, что в тридцать восемь лет у неё нет ни мужа, ни детей. Добившись популярности, Яна уверенно идёт вперед, не желая поступаться собственными принципами. Но неожиданно над благополучием Яны сгущаются тучи, и чтобы укрепить едва не утерянные позиции, она соглашается на немыслимый шаг, решив усыновить ребенка. Яна забирает к себе из детдома маленького цыганёнка по имени Янко. Вот только Яна даже и не подозревала, чем обернётся для неё такой пиар-ход.

Качество: WEB-DL 1080p
Формат: MKV

Видео: MPEG4 AVC Video, H264, 16:9, 1920x804, 24 fps, 4 445 kbps
Аудио: 48 kHz, AC3 Dolby Digital, 3/2 (L,C,R,l,r) + LFE ch, ~384 kbps
скриншот  скриншот  скриншот  скриншот  

Общее
Уникальный идентификатор : 241163401640388913715639614954591904508 (0xB56E61B52FFCBDA798E8F6A5526662FC)
Полное имя : D:\YaHa.YaHk0.2O17.O.WEB-DL.1O8Op.mkv
Формат : Matroska
Версия формата : Version 2
Размер файла : 3,32 Гбайт
Продолжительность : 1 ч. 36 м.
Общий поток : 4927 Кбит/сек
Дата кодирования : UTC 2017-05-10 20:06:33
Программа кодирования : mkvmerge v8.3.0 ('Over the Horizon') 64bit
Библиотека кодирования : libebml v1.3.1 + libmatroska v1.4.2

Видео
Идентификатор : 1
Формат : AVC
Формат/Информация : Advanced Video Codec
Профиль формата : High@L4
Параметр CABAC формата : Да
Параметр RefFrames формата : 5 кадров
Идентификатор кодека : V_MPEG4/ISO/AVC
Продолжительность : 1 ч. 36 м.
Битрейт : 4445 Кбит/сек
Ширина : 1920 пикселей
Высота : 804 пикселя
Соотношение сторон : 2,40:1
Режим частоты кадров : Постоянный
Частота кадров : 24,000 кадра/сек
Цветовое пространство : YUV
Субдискретизация насыщенности : 4:2:0
Битовая глубина : 8 бит
Тип развёртки : Прогрессивная
Бит/(Пиксели*Кадры) : 0.120
Размер потока : 3,00 Гбайт (90%)
Язык : English
Default : Да
Forced : Нет
Цветовой диапазон : Limited
Основные цвета : BT.709
Характеристики трансфера : BT.709
Коэффициенты матрицы : BT.709

Аудио
Идентификатор : 2
Формат : AC-3
Формат/Информация : Audio Coding 3
Расширение режима : CM (complete main)
Параметр Endianness формата : Big
Идентификатор кодека : A_AC3
Продолжительность : 1 ч. 36 м.
Вид битрейта : Постоянный
Битрейт : 384 Кбит/сек
Каналы : 6 каналов
Расположение каналов : Front: L C R, Side: L R, LFE
Частота : 48,0 КГц
Частота кадров : 31,250 кадров/сек (1536 spf)
Метод сжатия : С потерями
Размер потока : 265 Мбайт (8%)
Язык : Russian
Default : Да
Forced : Нет

Меню
00:00:00.000 : en:Глава 1
00:04:53.166 : en:Глава 2
00:09:58.624 : en:Глава 3
00:14:58.207 : en:Глава 4
00:21:44.373 : en:Глава 5
00:27:18.039 : en:Глава 6
00:33:02.039 : en:Глава 7
00:38:15.414 : en:Глава 8
00:42:47.580 : en:Глава 9
00:47:59.413 : en:Глава 10
00:54:11.663 : en:Глава 11
00:58:17.496 : en:Глава 12
01:03:03.704 : en:Глава 13
01:08:51.537 : en:Глава 14
01:13:56.828 : en:Глава 15
01:20:29.369 : en:Глава 16
01:25:37.327 : en:Глава 17
01:29:53.118 : en:Глава 18

piratbit.pw



Скачать Яна+Янко через торрент https://i111.fastpic.ru/big/2019/1201/4f/b04e4d49849fe4b45f3778c67bdf4d4f.jpg Скачать фильм Яна+Янко через торрент бесплантно в хорошем качестве Описание: Яна Титова - весьма успешная бизнес-леди, главный редактор модного глянцевого журнала. Она считает себя самодостаточной, ... 10 10 8
Торрент: Зарегистрирован [2019-12-01 12:37] · скачан: 61 раз
Статус: √ проверено
Размер: 3.32 GB
Как cкачать? Как скачать Яна+Янко через торрент | qTorrent

% Раздел Тема Автор DL S | L
Наши фильмы (HD, WEB-DL 720p, 1080p) [ 2.96 GB ] Яна+Янко [2017 WEB-DL 720p] bober100 Скачать
2 | 0
Отечественная Поп музыка (mp3) [ 210 MB ] Татьяна Буланова - Это я 2017 / MP3 / 320 kbps / Pop oleg8 Скачать
2 | 0
Наши новые фильмы 2017 [ 1.47 GB ] Яна+Янко [2017 WEB-DLRip-AVC] - ExKinoRay Enigma2010 Скачать
41 | 1
Наши сериалы [ 32.25 GB ] Фамильные ценности / Сезон: 1 / Серии 1-60 из 60 [2015 Россия WEB-DLRip] GEKADOL Скачать
1 | 0
Наши новые фильмы 2017 [ 1.37 GB ] Яна+Янко [2016 WEB-DLRip] Sherif Скачать
1 | 0
Наши новые фильмы 2017 [ 699 MB ] Яна+Янко [2016 WEB-DLRip] / Sherif Скачать
1 | 0
Клипы [ 261 MB ] Татьяна Котова - Я буду сильней [2015 Pop WEB-DL 1080p] opupokin Скачать
1 | 0


Последний раз редактировалось: bober100 (2019-12-01 13:40), всего редактировалось 1 раз

28-11-2019 20:33  

Отключить всю рекламу на сайте

01-12-2019 12:52 Яна+Янко Скачать торрент  

спс...за релиз, ты лучшийpiratbit.pw



    Дорогой пользователь! Огромная просьба, поблагодарите релизера, оцените раздачу и оставьте свои комментарий, если Вы скачали Яна+Янко через торрент бесплатно! Внесите свою лепту в развитие PiratBit!
    Комментировать посты могут только пользователи прошедшие не сложную регистрацию
    Показать сообщения:    

    Яна+Янко через торрент
    Скачать бесплатно Яна+Янко
    Яна+Янко скачать торрент
    Яна+Янко смотреть онлайн
    Cкачать фильм Яна+Янко бесплатно
    Яна+Янко скачать торрент в хорошем качестве
    Яна+Янко смотреть онлайн бесплатно в хорошем качестве


    Вы не можете начинать темы
    Вы не можете отвечать на сообщения
    Вы не можете редактировать свои сообщения
    Вы не можете удалять свои сообщения
    Вы не можете голосовать в опросах
    Вы не можете прикреплять файлы к сообщениям
    Вы можете скачивать файлы