Ссылка на приватное зеркало нашего сайта всего за 1$. Внимание количество ограничено!!!

2 сезон

iTunes

1 сезон

1

iTunes

iTunes

iTunes

1 сезон

RePack

30

ИГРА 18+

pack

ВАЖНО

!!Акция!!

Alien_RageХит недели

RePack

MK11
pack

Забери бонус

RePack

jed

!!Акция!!

Alien_Rage

RePack

fifa19

RePack

Assassins Creed: Odyssey

RePack

NEED FOR SPEED™ PAYBACK

4 сезон

9 сезон

Бесстыжие 9 сезон

Все сериалы

все сериалы на PB.wtf

RePack

FAR CRY 5
  

Очевидное алиби / Naked Alibi (Джерри Хоппер) [1954, фильм-нуар, триллер, драма, криминал, BDRip 1080p by msltel] MVO piratbit.pw

Очевидное алиби через торрент piratbit.pw

Размер: 8.99 GB | Добавлен: 10 мес. назад | Торрент скачан:0 раз
Скачать  

01-12-2019 08:00 Очевидное алиби Скачать торрент  

Название: Очевидное алиби
Оригинальное название: Naked Alibi
Год выпуска: 1954
Страна: США
Жанр: фильм-нуар, триллер, драма, криминал
Продолжительность: 01:25:33
Перевод: профессиональный многоголосый

Режиссер: Джерри Хоппер
В ролях: Стерлинг Хейден, Глория Грэм, Джин Бэрри, Марсия Хендерсон, Макс Шоуолтер, Билли Чэпин, Чак Коннорс, Дон Хэггерти, Стюарт Рэндолл, Дон Гаррет

О фильме: Уважаемого горожанина Эла Уиллиса допрашивают по подозрению в убийстве. Уиллис приходит в ярость и набрасывается на лейтенанта Паркса, который проводит допрос. Уиллиса отпускают, а на следующий день Паркса находят мёртвым. Подозрение падает на Уиллиса, и за дело берётся шериф Джо Конрой...



Качество: BDRip 1080p
Формат: MKV
Видео: MPEG-4 AVC, 13.3 Mбит/с, 1920x1036, 23.976 кадр/с
Аудио 1: русский, AC3, 192 kbps, 2 ch, 48 kHz [закадровый многоголосый, CTC]
Аудио 2: английский, DTS, 1509 kbps, 2 ch, 48 kHz [оригинал]
Субтитры: английские
Общее
Уникальный идентификатор : 222893092891251867501426735887218633266 (0xA7AFA5F069489E3C9F3E67A82C27EA32)
Полное имя : D:\Video\Очевидное алиби.1954.BDRip 1080p by msltel.mkv
Формат : Matroska
Версия формата : Version 4
Размер файла : 8,99 Гбайт
Продолжительность : 1 ч. 25 м.
Общий поток : 15,0 Мбит/сек
Название фильма : Rip by msltel
Дата кодирования : UTC 2019-12-01 06:06:46
Программа кодирования : mkvmerge v8.2.0 ('World of Adventure') 64bit
Библиотека кодирования : libebml v1.3.1 + libmatroska v1.4.2

Видео
Идентификатор : 1
Формат : AVC
Формат/Информация : Advanced Video Codec
Профиль формата : High@L4.1
Настройки формата : CABAC / 4 Ref Frames
Параметр CABAC формата : Да
Параметр RefFrames формата : 4 кадра
Идентификатор кодека : V_MPEG4/ISO/AVC
Продолжительность : 1 ч. 25 м.
Битрейт : 13,3 Мбит/сек
Ширина : 1920 пикселей
Высота : 1036 пикселей
Соотношение сторон : 1,85:1
Режим частоты кадров : Постоянный
Частота кадров : 23,976 (24000/1001) кадра/сек
Цветовое пространство : YUV
Субдискретизация насыщенности : 4:2:0
Битовая глубина : 8 бит
Тип развёртки : Прогрессивная
Бит/(Пиксели*Кадры) : 0.278
Размер потока : 7,97 Гбайт (89%)
Библиотека кодирования : x264 core 157 r2935 545de2f
Настройки программы : cabac=1 / ref=4 / deblock=1:-2:-2 / analyse=0x3:0x113 / me=umh / subme=11 / psy=1 / psy_rd=1.00:0.15 / mixed_ref=1 / me_range=32 / chroma_me=1 / trellis=2 / 8x8dct=1 / cqm=0 / deadzone=21,11 / fast_pskip=0 / chroma_qp_offset=-3 / threads=6 / lookahead_threads=1 / sliced_threads=0 / nr=0 / decimate=1 / interlaced=0 / bluray_compat=0 / constrained_intra=0 / bframes=12 / b_pyramid=2 / b_adapt=2 / b_bias=0 / direct=1 / weightb=1 / open_gop=0 / weightp=2 / keyint=230 / keyint_min=23 / scenecut=40 / intra_refresh=0 / rc_lookahead=40 / rc=crf / mbtree=0 / crf=24.0 / qcomp=0.60 / qpmin=0 / qpmax=69 / qpstep=4 / vbv_maxrate=50000 / vbv_bufsize=62500 / crf_max=0.0 / nal_hrd=none / filler=0 / ip_ratio=1.40 / pb_ratio=1.30 / aq=1:1.00
Язык : English
Default : Да
Forced : Нет

Аудио #1
Идентификатор : 2
Формат : AC-3
Формат/Информация : Audio Coding 3
Коммерческое название : Dolby Digital
Идентификатор кодека : A_AC3
Продолжительность : 1 ч. 25 м.
Вид битрейта : Постоянный
Битрейт : 192 Кбит/сек
Каналы : 2 канала
ChannelLayout : L R
Частота : 48,0 КГц
Частота кадров : 31,250 кадров/сек (1536 SPF)
Метод сжатия : С потерями
Размер потока : 118 Мбайт (1%)
Заголовок : MVO CTC
Язык : Russian
ServiceKind/String : Complete Main
Default : Да
Forced : Нет

Аудио #2
Идентификатор : 3
Формат : DTS
Формат/Информация : Digital Theater Systems
Идентификатор кодека : A_DTS
Продолжительность : 1 ч. 25 м.
Вид битрейта : Постоянный
Битрейт : 1509 Кбит/сек
Каналы : 2 канала
ChannelLayout : L R
Частота : 48,0 КГц
Частота кадров : 93,750 кадра/сек (512 SPF)
Битовая глубина : 16 бит
Метод сжатия : С потерями
Размер потока : 927 Мбайт (10%)
Заголовок : original
Язык : English
Default : Нет
Forced : Нет

Текст
Идентификатор : 4
Формат : UTF-8
Идентификатор кодека : S_TEXT/UTF8
Идентификатор кодека/Информация : UTF-8 Plain Text
Продолжительность : 1 ч. 22 м.
Битрейт : 51 бит/сек
ElementCount : 1134
Размер потока : 31,4 Кбайт (0%)
Заголовок : английские
Язык : English
Default : Нет
Forced : Нет
piratbit.pw



Скачать Очевидное алиби через торрент https://c.radikal.ru/c36/1911/3e/80d4d4633cb8.jpg Скачать фильм Очевидное алиби через торрент бесплантно в хорошем качестве О фильме: Уважаемого горожанина Эла Уиллиса допрашивают по подозрению в убийстве. Уиллис приходит в ярость и набрасывается на лейтенанта ... 5 10 1
Торрент: Зарегистрирован [2019-12-01 08:00] · скачан: 0 раз
Статус: √ проверено
Размер: 8.99 GB
Как cкачать? Как скачать Очевидное алиби через торрент | qTorrent

% Раздел Тема Автор DL S | L
Классика зарубежного кино [ 2.54 GB ] Очевидное алиби / Naked Alibi [1954 фильм-нуар BDRip by msltel] MVO msltel Скачать
1 | 0
Классика зарубежного кино [ 4.62 GB ] Очевидное алиби / Naked Alibi [1954 фильм-нуар BDRip 720p by msltel] MVO msltel Скачать
1 | 0

28-11-2019 20:33  

Отключить всю рекламу на сайте

    Дорогой пользователь! Огромная просьба, поблагодарите релизера, оцените раздачу и оставьте свои комментарий, если Вы скачали Очевидное алиби через торрент бесплатно! Внесите свою лепту в развитие PiratBit!
    Комментировать посты могут только пользователи прошедшие не сложную регистрацию
    Показать сообщения:    

    Очевидное алиби через торрент
    Скачать бесплатно Очевидное алиби
    Очевидное алиби скачать торрент
    Очевидное алиби смотреть онлайн
    Cкачать фильм Очевидное алиби бесплатно
    Очевидное алиби скачать торрент в хорошем качестве
    Очевидное алиби смотреть онлайн бесплатно в хорошем качестве


    Вы не можете начинать темы
    Вы не можете отвечать на сообщения
    Вы не можете редактировать свои сообщения
    Вы не можете удалять свои сообщения
    Вы не можете голосовать в опросах
    Вы не можете прикреплять файлы к сообщениям
    Вы можете скачивать файлы