Ссылка на приватное зеркало всего за 1$. Внимание количество ограничено!!!


iTunes

1+1

iTunes

мы

WEB-DL

1

iTunes

Чернобыль

iTunes

Ральф против интернета

Лицензия

ПШазам

Лицензия

Оно 2

WEB-DL

30
pack

Вам бонус

ВАЖНО

!!Акция!!

Alien_RageХит недели

RePack

Resident Evil 21

ИГРА 18+

pack

RePack

jed

!!Акция!!

Alien_Rage

RePack

fifa19

RePack

Assassins Creed: Odyssey

RePack

NEED FOR SPEED™ PAYBACK

4 сезон

9 сезон

Бесстыжие 9 сезон

Все сериалы

все сериалы на PB.wtf

RePack

FAR CRY 5
Ребята, катастрофически не хватает 1900р. для оплаты серверов за Октябрь (всвязи с блокировками трафик упал в 3 раза), 1-2р., выручайте.
  

Возвращение Мартина Герра / Le retour de Martin Guerre (Даниэль Винь) [1982, драма, мелодрама, криминал, детектив, биография, история, BDRip 1080p by msltel] MVO piratbit.pw

Возвращение Мартина Герра через торрент piratbit.pw

Раздают: 2 [ 0 KB/s ]
Размер: 14.47 GB | Добавлен: 14 д. назад | Торрент скачан:7 раз
Скачать  

01-12-2019 06:26 Возвращение Мартина Герра Скачать торрент  

Название: Возвращение Мартина Герра
Оригинальное название: Le retour de Martin Guerre
Год выпуска: 1982
Страна: Франция
Жанр: драма, мелодрама, криминал, детектив, биография, история
Продолжительность: 01:52:37
Перевод: закадровый многоголосый

Режиссер: Даниэль Винь
В ролях: Жерар Депардьё, Натали Бай, Морис Барье, Бернар–Пьер Доннадьё, Изабель Садоян, Роуз Тьери, Роже Планшон, Чеки Карио, Доминик Пинон, Френсис Арно, Ален Фреро, Марсель Шампель, Ивет Пети, Шанталь Дерюаз, Морис Жакмон, Филипп Бабин, Аксель Богуславски, Валери Шассиньо, Неж Дольски, Жан-Клод Перрен

О фильме: В родную деревню после многолетнего отсутствия возвращается Мартин Герр, юношей сбежавший в армию. За прошедшие годы Мартин сильно изменился, и постепенно это начинает вызывать подозрения у соседей: действительно ли вернувшийся человек — Мартин Герр? Хотя Мартина признаёт его жена, недоверие к нему растёт... Фильм основан на деле о мошенничестве, в котором участвовал Мартин Герр, во Франции в XVI веке.



Качество: BDRip 1080p
Формат: MKV
Видео: MPEG-4 AVC, 16.7 Mбит/с, 1800x1080, 23.976 Кадр/с
Аудио 1: русский, AC3, 192 kbps, 2 ch, 48 kHz [закадровый многоголосый]
Аудио 2: французский, DTS, 1509 kbps, 2 ch, 48 kHz [оригинал]
Субтитры: английские
Главы/чаптеры
Общее
Уникальный идентификатор : 215763833051334080989217525125830634294 (0xA2529A4A7A2FB9338CCCEE78D42F6B36)
Полное имя : D:\Video\Возвращение Мартина Герра.1982.BDRip 1080p by msltel.mkv
Формат : Matroska
Версия формата : Version 4
Размер файла : 14,5 Гбайт
Продолжительность : 1 ч. 52 м.
Общий поток : 18,4 Мбит/сек
Название фильма : Rip by msltel
Дата кодирования : UTC 2019-11-30 14:13:24
Программа кодирования : mkvmerge v8.2.0 ('World of Adventure') 64bit
Библиотека кодирования : libebml v1.3.1 + libmatroska v1.4.2

Видео
Идентификатор : 1
Формат : AVC
Формат/Информация : Advanced Video Codec
Профиль формата : High@L4.1
Настройки формата : CABAC / 4 Ref Frames
Параметр CABAC формата : Да
Параметр RefFrames формата : 4 кадра
Идентификатор кодека : V_MPEG4/ISO/AVC
Продолжительность : 1 ч. 52 м.
Битрейт : 16,7 Мбит/сек
Ширина : 1800 пикселей
Высота : 1080 пикселей
Соотношение сторон : 5:3
Режим частоты кадров : Постоянный
Частота кадров : 23,976 (24000/1001) кадра/сек
Цветовое пространство : YUV
Субдискретизация насыщенности : 4:2:0
Битовая глубина : 8 бит
Тип развёртки : Прогрессивная
Бит/(Пиксели*Кадры) : 0.358
Размер потока : 13,1 Гбайт (91%)
Библиотека кодирования : x264 core 157 r2935 545de2f
Настройки программы : cabac=1 / ref=4 / deblock=1:-2:-2 / analyse=0x3:0x113 / me=umh / subme=11 / psy=1 / psy_rd=1.00:0.15 / mixed_ref=1 / me_range=32 / chroma_me=1 / trellis=2 / 8x8dct=1 / cqm=0 / deadzone=21,11 / fast_pskip=0 / chroma_qp_offset=-3 / threads=6 / lookahead_threads=1 / sliced_threads=0 / nr=0 / decimate=1 / interlaced=0 / bluray_compat=0 / constrained_intra=0 / bframes=12 / b_pyramid=2 / b_adapt=2 / b_bias=0 / direct=1 / weightb=1 / open_gop=0 / weightp=2 / keyint=230 / keyint_min=23 / scenecut=40 / intra_refresh=0 / rc_lookahead=40 / rc=crf / mbtree=1 / crf=20.0 / qcomp=0.60 / qpmin=0 / qpmax=69 / qpstep=4 / vbv_maxrate=50000 / vbv_bufsize=62500 / crf_max=0.0 / nal_hrd=none / filler=0 / ip_ratio=1.40 / aq=1:1.00
Язык : French
Default : Да
Forced : Нет

Аудио #1
Идентификатор : 2
Формат : AC-3
Формат/Информация : Audio Coding 3
Коммерческое название : Dolby Digital
Идентификатор кодека : A_AC3
Продолжительность : 1 ч. 52 м.
Вид битрейта : Постоянный
Битрейт : 192 Кбит/сек
Каналы : 2 канала
ChannelLayout : L R
Частота : 48,0 КГц
Частота кадров : 31,250 кадров/сек (1536 SPF)
Метод сжатия : С потерями
Размер потока : 155 Мбайт (1%)
Заголовок : MVO
Язык : Russian
ServiceKind/String : Complete Main
Default : Да
Forced : Нет

Аудио #2
Идентификатор : 3
Формат : DTS
Формат/Информация : Digital Theater Systems
Идентификатор кодека : A_DTS
Продолжительность : 1 ч. 52 м.
Вид битрейта : Постоянный
Битрейт : 1509 Кбит/сек
Каналы : 2 канала
ChannelLayout : L R
Частота : 48,0 КГц
Частота кадров : 93,750 кадра/сек (512 SPF)
Битовая глубина : 16 бит
Метод сжатия : С потерями
Размер потока : 1,19 Гбайт (8%)
Заголовок : original
Язык : French
Default : Нет
Forced : Нет

Текст
Идентификатор : 4
Формат : UTF-8
Идентификатор кодека : S_TEXT/UTF8
Идентификатор кодека/Информация : UTF-8 Plain Text
Продолжительность : 1 ч. 48 м.
Битрейт : 33 бит/сек
ElementCount : 1092
Размер потока : 27,1 Кбайт (0%)
Заголовок : английские
Язык : English
Default : Нет
Forced : Нет

Меню
00:00:00.000 : :Глава 01
00:08:01.772 : :Глава 02
00:17:18.871 : :Глава 03
00:27:20.889 : :Глава 04
00:35:56.571 : :Глава 05
00:49:35.222 : :Глава 06
00:58:37.096 : :Глава 07
01:09:27.079 : :Глава 08
01:18:02.135 : :Глава 09
01:28:13.830 : :Глава 10
01:40:54.590 : :Глава 11
piratbit.pw



Скачать Возвращение Мартина Герра через торрент https://a.radikal.ru/a35/1911/c5/1b33635a1694.jpg Скачать фильм Возвращение Мартина Герра через торрент бесплантно в хорошем качестве О фильме: В родную деревню после многолетнего отсутствия возвращается Мартин Герр, юношей сбежавший в армию. За прошедшие годы Мартин ... 5 10 1
Торрент: Зарегистрирован [2019-12-01 06:26] · скачан: 7 раз
Статус: √ проверено
Размер: 14.47 GB
Как cкачать? Как скачать Возвращение Мартина Герра через торрент | qTorrent

% Раздел Тема Автор DL S | L
Фильмы [HD 720p, 1080p] (Хороший звук DUB, MVO) [ 4.94 GB ] Возвращение Мартина Герра / Le retour de Martin Guerre [1982 биография история BDRip 720p by msltel] MVO msltel Скачать
3 | 0
Фильмы до 2000 г. [ 2.65 GB ] Возвращение Мартина Герра / Le retour de Martin Guerre [1982 биография история BDRip by msltel] MVO msltel Скачать
3 | 0

28-11-2019 20:33  

Отключить всю рекламу на сайте

    Дорогой пользователь! Огромная просьба, поблагодарите релизера, оцените раздачу и оставьте свои комментарий, если Вы скачали Возвращение Мартина Герра через торрент бесплатно! Внесите свою лепту в развитие PiratBit!
    Комментировать посты могут только пользователи прошедшие не сложную регистрацию
    Показать сообщения:    

    Возвращение Мартина Герра через торрент
    Скачать бесплатно Возвращение Мартина Герра
    Возвращение Мартина Герра скачать торрент
    Возвращение Мартина Герра смотреть онлайн
    Cкачать фильм Возвращение Мартина Герра бесплатно
    Возвращение Мартина Герра скачать торрент в хорошем качестве
    Возвращение Мартина Герра смотреть онлайн бесплатно в хорошем качестве


    Вы не можете начинать темы
    Вы не можете отвечать на сообщения
    Вы не можете редактировать свои сообщения
    Вы не можете удалять свои сообщения
    Вы не можете голосовать в опросах
    Вы не можете прикреплять файлы к сообщениям
    Вы можете скачивать файлы