Ссылка на приватное зеркало всего за 1$. Внимание количество ограничено!!!


iTunes

1+1

iTunes

мы

WEB-DL

1

iTunes

Чернобыль

iTunes

Ральф против интернета

Лицензия

ПШазам

Лицензия

Оно 2

WEB-DL

30
pack

Вам бонус

ВАЖНО

!!Акция!!

Alien_RageХит недели

RePack

Resident Evil 21

ИГРА 18+

pack

RePack

jed

!!Акция!!

Alien_Rage

RePack

fifa19

RePack

Assassins Creed: Odyssey

RePack

NEED FOR SPEED™ PAYBACK

4 сезон

9 сезон

Бесстыжие 9 сезон

Все сериалы

все сериалы на PB.wtf

RePack

FAR CRY 5
Ребята, катастрофически не хватает 1900р. для оплаты серверов за Октябрь (всвязи с блокировками трафик упал в 3 раза), 1-2р., выручайте.
  

Ибица / Ibiza (Арно Лемор) [2019, комедия, BDRip 1080p] DUB [iTunes] piratbit.pw

Ибица через торрент piratbit.pw

Раздают: 7 [ 473 KB/s ] Качают: 1 [ 0 KB/s ]
Размер: 7.68 GB | Добавлен: 15 д. назад | Торрент скачан:78 раз
Скачать  

01-12-2019 05:45 Ибица Скачать торрент  

Ибица / Ibiza
Год выпуска: 2019
Страна: Франция, Бельгия
Студия: Atelier de Production, Gaumont, France 2 Cinéma
Жанр: комедия
Продолжительность: 01:26:01
Перевод: Дублированный | iTunes
Субтитры: отсутствуют

Режиссер: Арно Лемор

rating

В ролях: Кристиан Клавье, Халид Самата, Матильда Сенье, Леопольд Бухсбаум, Пили Груан, Джои Старр, Оливье Маршаль, Фредерик Бель, Луи-До де Ланкесэ, Виктор Уэртас

Описание: Консервативный доктор-ортопед Филипп пытается расположить к себе двух детей-подростков своей новой возлюбленной. Он решает провести вместе с ними семейный отпуск у моря, и молодежь выбирает Ибицу, где любителю тихого отдыха придется непросто.

Качество: BDRip 1080p
Формат: MKV

Видео: MPEG-4 AVC, 1920x1080, 31.6 Mbit/s, 24 fps
Аудио #01: 48 kHz, AC3, 5.1, 384 Kbps | iTunes | RUS |
Аудио #02: 48 kHz, AC3, 5.1, 640 Kbps | Оригинал | FRE |
скриншот  скриншот  скриншот  скриншот  скриншот  

General
Unique ID : 240622816126955874616330317285094171627 (0xB50644C8BF71E8160254B010BB15A3EB)
Complete name : F:Video111Ibiza.2019.BDRip.1080p.seleZen.mkv
Format : Matroska
Format version : Version 4
File size : 7.68 GiB
Duration : 1 h 26 min
Overall bit rate : 12.8 Mb/s
Movie name : Ibiza 2019 from селезень
Encoded date : UTC 2019-11-30 16:33:21
Writing application : mkvmerge v40.0.0 ('Old Town Road + Pony') 64-bit
Writing library : libebml v1.3.9 + libmatroska v1.5.2

Video
ID : 1
Format : AVC
Format/Info : Advanced Video Codec
Format profile : High@L4.1
Format settings : CABAC / 5 Ref Frames
Format settings, CABAC : Yes
Format settings, Reference : 5 frames
Codec ID : V_MPEG4/ISO/AVC
Duration : 1 h 26 min
Bit rate : 11.8 Mb/s
Width : 1 920 pixels
Height : 804 pixels
Display aspect ratio : 2.40:1
Frame rate mode : Constant
Frame rate : 24.000 FPS
Color space : YUV
Chroma subsampling : 4:2:0
Bit depth : 8 bits
Scan type : Progressive
Bits/(Pixel*Frame) : 0.318
Stream size : 7.07 GiB (92%)
Title : Encoded by seleZen
Writing library : x264 core 148 r2705kMod 3f5ed56
Encoding settings : cabac=1 / ref=5 / deblock=1:-2:-2 / analyse=0x3:0x113 / me=umh / subme=11 / psy=1 / fade_compensate=0.00 / psy_rd=1.02:0.01 / mixed_ref=1 / me_range=32 / chroma_me=1 / trellis=2 / 8x8dct=1 / cqm=0 / deadzone=21,11 / fast_pskip=0 / chroma_qp_offset=-3 / threads=24 / lookahead_threads=6 / sliced_threads=0 / nr=0 / decimate=0 / interlaced=0 / bluray_compat=0 / constrained_intra=0 / fgo=0 / bframes=10 / b_pyramid=2 / b_adapt=2 / b_bias=0 / direct=3 / weightb=1 / open_gop=0 / weightp=2 / keyint=240 / keyint_min=24 / scenecut=40 / intra_refresh=0 / rc_lookahead=50 / rc=2pass / mbtree=0 / bitrate=11768 / ratetol=1.0 / qcomp=0.60 / qpmin=0 / qpmax=51 / qpstep=4 / cplxblur=20.0 / qblur=0.5 / vbv_maxrate=50000 / vbv_bufsize=62500 / nal_hrd=none / filler=0 / ip_ratio=1.40 / pb_ratio=1.30 / aq=3:0.80
Language : French
Default : Yes
Forced : No

Audio #1
ID : 2
Format : AC-3
Format/Info : Audio Coding 3
Commercial name : Dolby Digital
Codec ID : A_AC3
Duration : 1 h 26 min
Bit rate mode : Constant
Bit rate : 384 kb/s
Channel(s) : 6 channels
Channel layout : L R C LFE Ls Rs
Sampling rate : 48.0 kHz
Frame rate : 31.250 FPS (1536 SPF)
Bit depth : 16 bits
Compression mode : Lossy
Stream size : 236 MiB (3%)
Title : iTunes
Language : Russian
Service kind : Complete Main
Default : Yes
Forced : Yes

Audio #2
ID : 3
Format : AC-3
Format/Info : Audio Coding 3
Commercial name : Dolby Digital
Codec ID : A_AC3
Duration : 1 h 26 min
Bit rate mode : Constant
Bit rate : 640 kb/s
Channel(s) : 6 channels
Channel layout : L R C LFE Ls Rs
Sampling rate : 48.0 kHz
Frame rate : 31.250 FPS (1536 SPF)
Bit depth : 16 bits
Compression mode : Lossy
Stream size : 394 MiB (5%)
Title : Original
Language : French
Service kind : Complete Main
Default : No
Forced : No

Menu
00:00:00.000 : en:Глава 01
00:06:39.792 : en:Глава 02
00:14:23.958 : en:Глава 03
00:20:40.958 : en:Глава 04
00:26:57.042 : en:Глава 05
00:32:19.625 : en:Глава 06
00:39:51.292 : en:Глава 07
00:47:00.292 : en:Глава 08
00:54:41.000 : en:Глава 09
01:01:33.500 : en:Глава 10
01:09:16.250 : en:Глава 11
01:16:26.500 : en:Глава 12

piratbit.pw



Скачать Ибица через торрент https://i111.fastpic.ru/big/2019/1201/9b/f0376aaebb9b1d3b966641115011b49b.jpg Скачать фильм Ибица через торрент бесплантно в хорошем качестве Описание: Консервативный доктор-ортопед Филипп пытается расположить к себе двух детей-подростков своей новой возлюбленной. Он решает ... 10 10 2
Торрент: Зарегистрирован [2019-12-01 05:45] · скачан: 78 раз
Статус: √ проверено
Размер: 7.68 GB
Как cкачать? Как скачать Ибица через торрент | qTorrent

% Раздел Тема Автор DL S | L
Фильмы 2019 [DVDrip, WEB-DLRip, HDrip] (DUB, MVO) [ 1.42 GB ] Ибица / Ibiza [2019 BDRip] - Twi7ter Скачать
29 | 5
Фильмы (Blu-ray, BD-Remux, HDDVD) [ 21.02 GB ] Ибица / Ibiza [2019 BD Remux 1080p] bober100 Скачать
1 | 0
Фильмы 2019 [DVDrip, WEB-DLRip, HDrip] (DUB, MVO) [ 1.42 GB ] Ибица / Ibiza [2019 BDRip] bober100 Скачать
6 | 0
Фильмы (WEB-DL 720p, 1080p) [ 3.05 GB ] Ибица / Ibiza [2019 WEB-DL 1080p] bober100 Скачать
1 | 0
Фильмы (WEB-DL 720p, 1080p) [ 2.66 GB ] Ибица / Ibiza [2019 WEB-DL 720p] bober100 Скачать
4 | 0
Порно фильмы HD [ 8.03 GB ] Анальные Омара на Ибице / Private Specials 79: Omar's Anal Adventures In Ibiza [2013 All Sex Anal. WEB-DL 1080p Оригинал] nn99nn Скачать
1 | 0
Порно фильмы с сюжетом [ 749 MB ] Поездка на Ибицу 1 / Cumming to Ibiza 1 [1995 Feature Foreign Straight Oral All Sex VHSRip 368p] sheker187 Скачать
2 | 0

28-11-2019 20:33  

Отключить всю рекламу на сайте

    Дорогой пользователь! Огромная просьба, поблагодарите релизера, оцените раздачу и оставьте свои комментарий, если Вы скачали Ибица через торрент бесплатно! Внесите свою лепту в развитие PiratBit!
    Комментировать посты могут только пользователи прошедшие не сложную регистрацию
    Показать сообщения:    

    Ибица через торрент
    Скачать бесплатно Ибица
    Ибица скачать торрент
    Ибица смотреть онлайн
    Cкачать фильм Ибица бесплатно
    Ибица скачать торрент в хорошем качестве
    Ибица смотреть онлайн бесплатно в хорошем качестве


    Вы не можете начинать темы
    Вы не можете отвечать на сообщения
    Вы не можете редактировать свои сообщения
    Вы не можете удалять свои сообщения
    Вы не можете голосовать в опросах
    Вы не можете прикреплять файлы к сообщениям
    Вы можете скачивать файлы