Ссылка на приватное зеркало всего за 1$. Внимание количество ограничено!!!

iTunes

iTunes

iTunes

1

iTunes

iTunes

iTunes

iTunes

iTunes

30
pack

$ от Little Big

ВАЖНО

!!Акция!!

Alien_RageХит недели

RePack

Resident Evil 21

ИГРА 18+

pack

RePack

jed

!!Акция!!

Alien_Rage

RePack

fifa19

RePack

Assassins Creed: Odyssey

RePack

NEED FOR SPEED™ PAYBACK

4 сезон

9 сезон

Бесстыжие 9 сезон

Все сериалы

все сериалы на PB.wtf

RePack

FAR CRY 5
  

Курьер / The Courier (Закари Адлер) [2019, боевик, триллер, драма, WEB-DLRip-AVC] DUB [iTunes] piratbit.pw

Курьер через торрент piratbit.pw

Раздают: 1 [ 0 KB/s ]
Размер: 1.45 GB | Добавлен: 6 мес. назад | Торрент скачан:309 раз
Скачать  

29-11-2019 16:41 Курьер Скачать торрент  

Курьер / The Courier
Год выпуска: 2019
Страна: Великобритания, США
Жанр: боевик, триллер, драма
Продолжительность: 01:39:03
Перевод: Дублированный | iTunes
Субтитры: Русские (полные)

Режиссер: Закари Адлер

rating

В ролях: Ольга Куриленко, Гари Олдман, Амит Шах, Алисия Агнесон, Грег Орвис, Крэйг Конуэй, Уильям Моусли, Дермот Малруни, Гордон Александр, Нил Чапелоу

Описание: На первый взгляд, она - всего лишь курьер на черном мотоцикле, стремительно пронзающем ночной Лондон. Но даже в огромном мегаполисе красотке удается ускользнуть от уличных камер, и ее имя невозможно найти ни в одной базе данных. Именно она, дерзкая и неуловимая, бросит вызов могущественному криминальному боссу. И ему лучше не знать, кто на самом деле эта взрывная брюнетка...

Качество: WEB-DLRip-AVC
Формат: MKV

Видео: 1024x426 (2,40:1), 23,976 fps, MPEG-4 AVC ~ 1711 Kbps avg, 0.164 bit/pixel
Аудио: AC3, 48 kHz, 6 ch, ~384.00 kbps avg | русский | iTunes
скриншот  скриншот  скриншот  скриншот  

Общее
Уникальный идентификатор : 271794157692084314277588574629709472296 (0xCC79A694550880702F9D68D24317E228)
Полное имя : G:Kurer.2019.RUS.WEB-DLRip.x264.mkv
Формат : Matroska
Версия формата : Version 4
Размер файла : 1,45 Гбайт
Продолжительность : 1 ч. 39 м.
Общий поток : 2092 Кбит/сек
Название фильма : Курьер / The Courier (2019)
Дата кодирования : UTC 2020-01-03 01:46:46
Программа кодирования : mkvmerge v41.0.0 ('Smarra') 64-bit
Библиотека кодирования : libebml v1.3.9 + libmatroska v1.5.2
Обложка : Yes
Attachments : cover.jpg

Видео
Идентификатор : 1
Формат : AVC
Формат/Информация : Advanced Video Codec
Профиль формата : High@L4.1
Настройки формата : CABAC / 9 Ref Frames
Параметр CABAC формата : Да
Параметр RefFrames формата : 9 кадров
Идентификатор кодека : V_MPEG4/ISO/AVC
Продолжительность : 1 ч. 39 м.
Битрейт : 1711 Кбит/сек
Ширина : 1024 пикселя
Высота : 426 пикселей
Соотношение сторон : 2,40:1
Режим частоты кадров : Постоянный
Частота кадров : 23,976 кадра/сек
Цветовое пространство : YUV
Субдискретизация насыщенности : 4:2:0
Битовая глубина : 8 бит
Тип развёртки : Прогрессивная
Бит/(Пиксели*Кадры) : 0.164
Размер потока : 1,18 Гбайт (82%)
Заголовок : #stillet
Библиотека кодирования : x264 core 152 r2851bm ba24899
Настройки программы : cabac=1 / ref=9 / deblock=1:-3:-3 / analyse=0x3:0x133 / me=umh / subme=10 / psy=1 / psy_rd=1.00:0.15 / mixed_ref=1 / me_range=32 / chroma_me=1 / trellis=2 / 8x8dct=1 / cqm=0 / deadzone=21,11 / fast_pskip=0 / chroma_qp_offset=-3 / threads=16 / lookahead_threads=3 / sliced_threads=0 / nr=0 / decimate=0 / interlaced=0 / bluray_compat=0 / constrained_intra=0 / bframes=10 / b_pyramid=2 / b_adapt=2 / b_bias=0 / direct=3 / weightb=1 / open_gop=0 / weightp=2 / keyint=250 / keyint_min=23 / scenecut=40 / intra_refresh=0 / rc=2pass / mbtree=0 / bitrate=1711 / ratetol=1.0 / qcomp=0.60 / qpmin=0 / qpmax=69 / qpstep=4 / cplxblur=20.0 / qblur=0.5 / ip_ratio=1.40 / pb_ratio=1.30 / aq=1:1.00
Язык : English
Default : Да
Forced : Нет

Аудио
Идентификатор : 2
Формат : AC-3
Формат/Информация : Audio Coding 3
Коммерческое название : Dolby Digital
Идентификатор кодека : A_AC3
Продолжительность : 1 ч. 39 м.
Вид битрейта : Постоянный
Битрейт : 384 Кбит/сек
Каналы : 6 каналов
ChannelLayout : L R C LFE Ls Rs
Частота : 48,0 КГц
Частота кадров : 31,250 кадров/сек (1536 SPF)
Метод сжатия : С потерями
Размер потока : 272 Мбайт (18%)
Заголовок : iTunes
Язык : Russian
Default : Да
Forced : Нет

Текст
Идентификатор : 3
Формат : UTF-8
Идентификатор кодека : S_TEXT/UTF8
Идентификатор кодека/Информация : UTF-8 Plain Text
Продолжительность : 1 ч. 34 м.
Битрейт : 44 бит/сек
ElementCount : 665
Размер потока : 30,7 Кбайт (0%)
Заголовок : Full | iTunes
Язык : Russian
Default : Да
Forced : Нет
piratbit.pw



Скачать Курьер через торрент https://i2.imageban.ru/out/2020/01/02/763540e7be168bd0db4124f5a0b6ac2b.png Скачать фильм Курьер через торрент бесплантно в хорошем качестве Описание: На первый взгляд, она - всего лишь курьер на черном мотоцикле, стремительно пронзающем ночной Лондон. Но даже в огромном ... 9.3 10 14
Торрент: Зарегистрирован [2020-01-03 06:38] · скачан: 309 раз
Статус: √ проверено
Размер: 1.45 GB
Как cкачать? Как скачать Курьер через торрент | qTorrent

% Раздел Тема Автор DL S | L
Фильмы 2019-2020 [DVDrip, WEB-DLRip, HDrip] (DUB, MVO) [ 2.05 GB ] Курьер / The Courier [2019 BDRip-AVC] DUB - ExKinoRay Enigma2010 Скачать
15 | 0
Фильмы 2019-2020 [DVDrip, WEB-DLRip, HDrip] (DUB, MVO) [ 1.46 GB ] Курьер / The Courier [2019 BDRip] bober100 Скачать
1 | 0
Фильмы 2019-2020 [DVDrip, WEB-DLRip, HDrip] (DUB, MVO) [ 1.42 GB ] Курьер / The Courier [2019 BDRip] - Twi7ter Скачать
25 | 2
Фильмы 2019-2020 [DVDrip, WEB-DLRip, HDrip] (DUB, MVO) [ 1.41 GB ] Курьер / The Courier [2019 BDRip-AVC] bober100 Скачать
1 | 0
Фильмы [HD 720p, 1080p] (Хороший звук DUB, MVO) [ 4.41 GB ] Курьер / The Courier [2019 BDRip 720p] DUB bober100 Скачать
2 | 0
Фильмы [HD 720p, 1080p] (Хороший звук DUB, MVO) [ 7.8 GB ] Курьер / The Courier [2019 BDRip 1080p] DUB bober100 Скачать
5 | 0
Фильмы 2019-2020 [DVDrip, WEB-DLRip, HDrip] (DUB, MVO) [ 709 MB ] Курьер / The Courier [2019 WEB-DLRip ""] coc900 Скачать
2 | 0

28-11-2019 20:33  

Отключить всю рекламу на сайте

03-01-2020 09:54 Курьер Скачать торрент  

Шлак фильм. !piratbit.pw



03-01-2020 12:08 Курьер Скачать торрент  

Boss189 писал(а):

Шлак фильм. !

Ты хороший человек. Спасибо.piratbit.pw



    Дорогой пользователь! Огромная просьба, поблагодарите релизера, оцените раздачу и оставьте свои комментарий, если Вы скачали Курьер через торрент бесплатно! Внесите свою лепту в развитие PiratBit!
    Комментировать посты могут только пользователи прошедшие не сложную регистрацию
    Показать сообщения:    

    Курьер через торрент
    Скачать бесплатно Курьер
    Курьер скачать торрент
    Курьер смотреть онлайн
    Cкачать фильм Курьер бесплатно
    Курьер скачать торрент в хорошем качестве
    Курьер смотреть онлайн бесплатно в хорошем качестве


    Вы не можете начинать темы
    Вы не можете отвечать на сообщения
    Вы не можете редактировать свои сообщения
    Вы не можете удалять свои сообщения
    Вы не можете голосовать в опросах
    Вы не можете прикреплять файлы к сообщениям
    Вы можете скачивать файлы