Ссылка на приватное зеркало всего за 1$. Внимание количество ограничено!!!

iTunes

iTunes

iTunes

1

iTunes

iTunes

iTunes

iTunes

iTunes

30
pack

$ от Little Big

ВАЖНО

!!Акция!!

Alien_RageХит недели

RePack

Resident Evil 21

ИГРА 18+

pack

RePack

jed

!!Акция!!

Alien_Rage

RePack

fifa19

RePack

Assassins Creed: Odyssey

RePack

NEED FOR SPEED™ PAYBACK

4 сезон

9 сезон

Бесстыжие 9 сезон

Все сериалы

все сериалы на PB.wtf

RePack

FAR CRY 5
  

Ангелы Чарли / Charlie's Angels (Элизабет Бэнкс) [2019, боевик, комедия, приключения, WEB-DL 1080p] DUB (rus, ukr) [iTunes] piratbit.pw

Ангелы Чарли через торрент piratbit.pw

Размер: 4.43 GB | Добавлен: 4 мес. 24 д. назад | Торрент скачан:415 раз
Скачать  

29-11-2019 01:28 Ангелы Чарли Скачать торрент  

Ангелы Чарли | Charlie's Angels
Год выпуска: 2019
Страна: США
Студия: Columbia Pictures, 2.0 Entertainment, Brownstone Productions
Жанр: боевик, комедия, приключения
Продолжительность: 01:58:28
Перевод: Дублированный | iTunes
Субтитры: Русские, английские, украинские

Режиссер: Элизабет Бэнкс

rating

В ролях: Кристен Стюарт, Наоми Скотт, Элла Балинска, Сэм Клафлин, Ной Сентинео, Элизабет Бэнкс, Джимон Хонсу, Патрик Стюарт, Луис Херардо Мендес, Джонатан Такер

Описание: Частное детективное агентство Таунсенд, возглавляемое таинственным Чарли, открывает свои офисы по всему миру, и теперь в разных уголках земного шара команды суперпрофессиональных Ангелов под началом Босли обеспечивают покой и безопасность своим клиентам.

Качество: WEB-DL 1080p
Формат: MKV

Видео: MPEG-4 AVC, 1920x798, 4459 Kbit/s, 23.976 fps
Аудио #01: 48 kHz, AC3, 5.1, 384 Kbps | iTunes | RUS |
Аудио #02: 48 kHz, AAC, 2.0, 126 Kbps | Дублированный | UKR |
Аудио #03: 48 kHz, AC3, 5.1, 384 Kbps | Оригинал | ENG |
скриншот  скриншот  скриншот  скриншот  скриншот  

General
Unique ID : 287301753772567945548763808514407982174 (0xD8244E18D77FE204CFF4ED7C9F64E45E)
Complete name : E:Video111Charlie's.Angels.2019.WEB-DL.1080p.seleZen.mkv
Format : Matroska
Format version : Version 4
File size : 4.43 GiB
Duration : 1 h 58 min
Overall bit rate : 5 356 kb/s
Movie name : Charlie's Angels 2019 from селезень
Encoded date : UTC 2020-02-16 19:57:40
Writing application : mkvmerge v40.0.0 ('Old Town Road + Pony') 64-bit
Writing library : libebml v1.3.9 + libmatroska v1.5.2

Video
ID : 1
Format : AVC
Format/Info : Advanced Video Codec
Format profile : High@L4
Format settings : CABAC / 5 Ref Frames
Format settings, CABAC : Yes
Format settings, Reference : 5 frames
Codec ID : V_MPEG4/ISO/AVC
Duration : 1 h 58 min
Bit rate : 4 459 kb/s
Width : 1 920 pixels
Height : 798 pixels
Display aspect ratio : 2.40:1
Frame rate mode : Constant
Frame rate : 23.976 (24000/1001) FPS
Color space : YUV
Chroma subsampling : 4:2:0
Bit depth : 8 bits
Scan type : Progressive
Bits/(Pixel*Frame) : 0.121
Stream size : 3.69 GiB (83%)
Language : English
Default : Yes
Forced : No
Color range : Limited
Color primaries : BT.709
Transfer characteristics : BT.709
Matrix coefficients : BT.709

Audio #1
ID : 2
Format : AC-3
Format/Info : Audio Coding 3
Commercial name : Dolby Digital
Codec ID : A_AC3
Duration : 1 h 58 min
Bit rate mode : Constant
Bit rate : 384 kb/s
Channel(s) : 6 channels
Channel layout : L R C LFE Ls Rs
Sampling rate : 48.0 kHz
Frame rate : 31.250 FPS (1536 SPF)
Compression mode : Lossy
Stream size : 325 MiB (7%)
Title : iTunes
Language : Russian
Service kind : Complete Main
Default : Yes
Forced : Yes

Audio #2
ID : 3
Format : AAC LC
Format/Info : Advanced Audio Codec Low Complexity
Codec ID : A_AAC-2
Duration : 1 h 58 min
Bit rate : 126 kb/s
Channel(s) : 2 channels
Channel layout : L R
Sampling rate : 44.1 kHz
Frame rate : 43.066 FPS (1024 SPF)
Compression mode : Lossy
Stream size : 107 MiB (2%)
Title : iTunes
Language : Ukrainian
Default : No
Forced : No

Audio #3
ID : 4
Format : AC-3
Format/Info : Audio Coding 3
Commercial name : Dolby Digital
Codec ID : A_AC3
Duration : 1 h 58 min
Bit rate mode : Constant
Bit rate : 384 kb/s
Channel(s) : 6 channels
Channel layout : L R C LFE Ls Rs
Sampling rate : 48.0 kHz
Frame rate : 31.250 FPS (1536 SPF)
Compression mode : Lossy
Stream size : 325 MiB (7%)
Title : Original
Language : English
Service kind : Complete Main
Default : No
Forced : No

Text #1
ID : 5
Format : UTF-8
Codec ID : S_TEXT/UTF8
Codec ID/Info : UTF-8 Plain Text
Duration : 1 h 46 min
Bit rate : 1 b/s
Count of elements : 29
Stream size : 909 Bytes (0%)
Title : Forced
Language : Russian
Default : Yes
Forced : Yes

Text #2
ID : 6
Format : UTF-8
Codec ID : S_TEXT/UTF8
Codec ID/Info : UTF-8 Plain Text
Duration : 1 h 52 min
Bit rate : 88 b/s
Count of elements : 1612
Stream size : 73.2 KiB (0%)
Title : Full
Language : Russian
Default : No
Forced : No

Text #3
ID : 7
Format : UTF-8
Codec ID : S_TEXT/UTF8
Codec ID/Info : UTF-8 Plain Text
Duration : 19 min 32 s
Bit rate : 4 b/s
Count of elements : 11
Stream size : 587 Bytes (0%)
Title : Forced
Language : Ukrainian
Default : No
Forced : No

Text #4
ID : 8
Format : UTF-8
Codec ID : S_TEXT/UTF8
Codec ID/Info : UTF-8 Plain Text
Duration : 1 h 52 min
Bit rate : 98 b/s
Count of elements : 1614
Stream size : 80.8 KiB (0%)
Title : Full
Language : Ukrainian
Default : No
Forced : No

Text #5
ID : 9
Format : UTF-8
Codec ID : S_TEXT/UTF8
Codec ID/Info : UTF-8 Plain Text
Duration : 1 h 52 min
Bit rate : 62 b/s
Count of elements : 1743
Stream size : 51.4 KiB (0%)
Title : Full
Language : English
Default : No
Forced : No

Menu
00:00:00.000 : en:1
00:10:25.625 : en:2
00:16:49.549 : en:3
00:26:27.752 : en:4
00:31:51.783 : en:5
00:37:35.083 : en:6
00:43:54.878 : en:7
00:46:38.249 : en:8
00:51:25.535 : en:9
00:55:09.257 : en:10
01:03:47.691 : en:11
01:11:23.188 : en:12
01:20:13.842 : en:13
01:30:46.558 : en:14
01:40:30.641 : en:15
01:45:23.099 : en:16

piratbit.pw



Скачать Ангелы Чарли через торрент https://img15.lostpic.net/2020/02/16/73e57754696e5c2d83dadf28649a30ab.jpg Скачать фильм Ангелы Чарли через торрент бесплантно в хорошем качестве Описание: Частное детективное агентство Таунсенд, возглавляемое таинственным Чарли, открывает свои офисы по всему миру, и теперь в разных ... 9.7 10 27
Торрент: Зарегистрирован [2020-02-16 20:17] · скачан: 415 раз
Статус: √ проверено
Размер: 4.43 GB
Как cкачать? Как скачать Ангелы Чарли через торрент | qTorrent



Последний раз редактировалось: bober100 (2020-02-11 18:52), всего редактировалось 4 раз(а)

28-11-2019 20:33  

Отключить всю рекламу на сайте

    Дорогой пользователь! Огромная просьба, поблагодарите релизера, оцените раздачу и оставьте свои комментарий, если Вы скачали Ангелы Чарли через торрент бесплатно! Внесите свою лепту в развитие PiratBit!
    Комментировать посты могут только пользователи прошедшие не сложную регистрацию
    Показать сообщения:    

    Ангелы Чарли через торрент
    Скачать бесплатно Ангелы Чарли
    Ангелы Чарли скачать торрент
    Ангелы Чарли смотреть онлайн
    Cкачать фильм Ангелы Чарли бесплатно
    Ангелы Чарли скачать торрент в хорошем качестве
    Ангелы Чарли смотреть онлайн бесплатно в хорошем качестве


    Вы не можете начинать темы
    Вы не можете отвечать на сообщения
    Вы не можете редактировать свои сообщения
    Вы не можете удалять свои сообщения
    Вы не можете голосовать в опросах
    Вы не можете прикреплять файлы к сообщениям
    Вы можете скачивать файлы