Ссылка на приватное зеркало всего за 1$. Внимание количество ограничено!!!

iTunes

iTunes

iTunes

1

iTunes

iTunes

iTunes

iTunes

iTunes

30
pack

$ от Little Big

ВАЖНО

!!Акция!!

Alien_RageХит недели

RePack

Resident Evil 21

ИГРА 18+

pack

RePack

jed

!!Акция!!

Alien_Rage

RePack

fifa19

RePack

Assassins Creed: Odyssey

RePack

NEED FOR SPEED™ PAYBACK

4 сезон

9 сезон

Бесстыжие 9 сезон

Все сериалы

все сериалы на PB.wtf

RePack

FAR CRY 5
  

Ангелы Чарли / Charlie's Angels (Элизабет Бэнкс) [2019, боевик, комедия, приключения, WEB-DL 720p] DUB (rus, ukr) [iTunes] piratbit.pw

Ангелы Чарли через торрент piratbit.pw

Размер: 4.14 GB | Добавлен: 4 мес. 24 д. назад | Торрент скачан:165 раз
Скачать  

29-11-2019 01:28 Ангелы Чарли Скачать торрент  

Ангелы Чарли | Charlie's Angels
Год выпуска: 2019
Страна: США
Студия: Columbia Pictures, 2.0 Entertainment, Brownstone Productions
Жанр: боевик, комедия, приключения
Продолжительность: 01:58:28
Перевод: Дублированный | iTunes
Субтитры: Russian (Full, Forced), Ukrainian (Full, Forced), English

Режиссер: Элизабет Бэнкс

rating

В ролях: Кристен Стюарт, Наоми Скотт, Элла Балинска, Сэм Клафлин, Ной Сентинео, Элизабет Бэнкс, Джимон Хонсу, Патрик Стюарт, Луис Херардо Мендес, Джонатан Такер

Описание: Частное детективное агентство Таунсенд, возглавляемое таинственным Чарли, открывает свои офисы по всему миру, и теперь в разных уголках земного шара команды суперпрофессиональных Ангелов под началом Босли обеспечивают покой и безопасность своим клиентам.

Качество: WEB-DL 720p
Формат: MKV

Видео: MPEG-4 AVC, 1280x532, 4042 Kbit/s, 23.976 fps
Аудио #01: 48 kHz, AC3, 5.1, 384 Kbps | iTunes | RUS |
Аудио #02: 48 kHz, AC3, 2.0, 192 Kbps | Дублированный | UKR |
Аудио #03: 48 kHz, AC3, 5.1, 384 Kbps | Оригинал | ENG |
скриншот  скриншот  скриншот  скриншот  

Format: Matroska
Format version: Version 4 / Version 2
File size: 4.14 GiB
Duration: 1 h 58 min
Overall bit rate: 5 005 kb/s
Movie name: ELEKTRI4KA.UNIONGANG
Encoded date: UTC 2020-02-16 20:01:45
Writing application: mkvmerge v8.3.0 ('Over the Horizon') 64bit
Writing library: libebml v1.3.1 + libmatroska v1.4.2

Video
ID: 1
Format: AVC
Format/Info: Advanced Video Codec
Format profile: Main@L3.1
Format settings, CABAC: No
Format settings, Reference frames: 2 frames
Codec ID: V_MPEG4/ISO/AVC
Duration: 1 h 58 min
Bit rate: 4 042 kb/s
Width: 1 280 pixels
Height: 532 pixels
Display aspect ratio: 2.40:1
Frame rate mode: Constant
Frame rate: 23.976 (24000/1001) FPS
Color space: YUV
Chroma subsampling: 4:2:0
Bit depth: 8 bits
Scan type: Progressive
Bits/(Pixel*Frame): 0.248
Stream size: 3.35 GiB (81%)
Language: English
Default: Yes
Forced: No
Color range: Limited
Color primaries: BT.709
Transfer characteristics: BT.709
Matrix coefficients: BT.709

Audio #1
ID: 2
Format: AC-3
Format/Info: Audio Coding 3
Mode extension: CM (complete main)
Format settings, Endianness: Big
Codec ID: A_AC3
Duration: 1 h 58 min
Bit rate mode: Constant
Bit rate: 384 kb/s
Channel(s): 6 channels
Channel positions: Front: L C R, Side: L R, LFE
Sampling rate: 48.0 kHz
Frame rate: 31.250 FPS (1536 spf)
Bit depth: 16 bits
Compression mode: Lossy
Stream size: 325 MiB (8%)
Title: iTunes ELEKTRI4KA.UNIONGANG
Language: Russian
Default: Yes
Forced: No

Audio #2
ID: 3
Format: AC-3
Format/Info: Audio Coding 3
Mode extension: CM (complete main)
Format settings, Endianness: Big
Codec ID: A_AC3
Duration: 1 h 58 min
Bit rate mode: Constant
Bit rate: 192 kb/s
Channel(s): 2 channels
Channel positions: Front: L R
Sampling rate: 48.0 kHz
Frame rate: 31.250 FPS (1536 spf)
Bit depth: 16 bits
Compression mode: Lossy
Stream size: 163 MiB (4%)
Title: iTunes
Language: Ukrainian
Default: No
Forced: No

Audio #3
ID: 4
Format: AC-3
Format/Info: Audio Coding 3
Mode extension: CM (complete main)
Format settings, Endianness: Big
Codec ID: A_AC3
Duration: 1 h 58 min
Bit rate mode: Constant
Bit rate: 384 kb/s
Channel(s): 6 channels
Channel positions: Front: L C R, Side: L R, LFE
Sampling rate: 48.0 kHz
Frame rate: 31.250 FPS (1536 spf)
Bit depth: 16 bits
Compression mode: Lossy
Stream size: 325 MiB (8%)
Language: English
Default: No
Forced: No

Text #1
ID: 5
Format: UTF-8
Codec ID: S_TEXT/UTF8
Codec ID/Info: UTF-8 Plain Text
Duration: 1 h 57 min
Bit rate: 1 b/s
Count of elements: 30
Stream size: 970 Bytes (0%)
Title: Forc
Language: Russian
Default: Yes
Forced: No

Text #2
ID: 6
Format: UTF-8
Codec ID: S_TEXT/UTF8
Codec ID/Info: UTF-8 Plain Text
Duration: 1 h 57 min
Bit rate: 84 b/s
Count of elements: 1613
Stream size: 73.2 KiB (0%)
Title: Full
Language: Russian
Default: No
Forced: No

Text #3
ID: 7
Format: UTF-8
Codec ID: S_TEXT/UTF8
Codec ID/Info: UTF-8 Plain Text
Duration: 19 min 32 s
Bit rate: 4 b/s
Count of elements: 11
Stream size: 587 Bytes (0%)
Title: Forc
Language: Ukrainian
Default: No
Forced: No

Text #4
ID: 8
Format: UTF-8
Codec ID: S_TEXT/UTF8
Codec ID/Info: UTF-8 Plain Text
Duration: 1 h 57 min
Bit rate: 93 b/s
Count of elements: 1615
Stream size: 80.9 KiB (0%)
Title: Full
Language: Ukrainian
Default: No
Forced: No

Text #5
ID: 9
Format: UTF-8
Codec ID: S_TEXT/UTF8
Codec ID/Info: UTF-8 Plain Text
Duration: 1 h 52 min
Bit rate: 59 b/s
Count of elements: 1603
Stream size: 49.4 KiB (0%)
Language: English
Default: No
Forced: No

Text #6
ID: 10
Format: UTF-8
Codec ID: S_TEXT/UTF8
Codec ID/Info: UTF-8 Plain Text
Duration: 1 h 52 min
Bit rate: 59 b/s
Count of elements: 1603
Stream size: 49.4 KiB (0%)
Language: English
Default: No
Forced: No

Menu
00:00:00.000: en:1 / en:1
00:10:25.625: en:2 / en:2
00:16:49.549: en:3 / en:3
00:26:27.752: en:4 / en:4
00:31:51.783: en:5 / en:5
00:37:35.083: en:6 / en:6
00:43:54.878: en:7 / en:7
00:46:38.249: en:8 / en:8
00:51:25.535: en:9 / en:9
00:55:09.257: en:10 / en:10
01:03:47.691: en:11 / en:11
01:11:23.188: en:12 / en:12
01:20:13.842: en:13 / en:13
01:30:46.558: en:14 / en:14
01:40:30.641: en:15 / en:15
01:45:23.099: en:16 / en:16
piratbit.pw



Скачать Ангелы Чарли через торрент https://img15.lostpic.net/2020/02/16/73e57754696e5c2d83dadf28649a30ab.jpg Скачать фильм Ангелы Чарли через торрент бесплантно в хорошем качестве Описание: Частное детективное агентство Таунсенд, возглавляемое таинственным Чарли, открывает свои офисы по всему миру, и теперь в разных ... 9.7 10 11
Торрент: Зарегистрирован [2020-02-16 20:19] · скачан: 165 раз
Статус: √ проверено
Размер: 4.14 GB
Как cкачать? Как скачать Ангелы Чарли через торрент | qTorrent



Последний раз редактировалось: bober100 (2020-02-17 06:00), всего редактировалось 1 раз

28-11-2019 20:33  

Отключить всю рекламу на сайте

17-02-2020 00:28 Ангелы Чарли Скачать торрент  

Только из-за того, что тут снимается недоактёрка с лицом дауна (не в обиду даунам), не буду смотреть сиё "произведение"...piratbit.pw



    Дорогой пользователь! Огромная просьба, поблагодарите релизера, оцените раздачу и оставьте свои комментарий, если Вы скачали Ангелы Чарли через торрент бесплатно! Внесите свою лепту в развитие PiratBit!
    Комментировать посты могут только пользователи прошедшие не сложную регистрацию
    Показать сообщения:    

    Ангелы Чарли через торрент
    Скачать бесплатно Ангелы Чарли
    Ангелы Чарли скачать торрент
    Ангелы Чарли смотреть онлайн
    Cкачать фильм Ангелы Чарли бесплатно
    Ангелы Чарли скачать торрент в хорошем качестве
    Ангелы Чарли смотреть онлайн бесплатно в хорошем качестве


    Вы не можете начинать темы
    Вы не можете отвечать на сообщения
    Вы не можете редактировать свои сообщения
    Вы не можете удалять свои сообщения
    Вы не можете голосовать в опросах
    Вы не можете прикреплять файлы к сообщениям
    Вы можете скачивать файлы