Marvel's Avengers Deluxe Edition (супер цена) 159р. Внимание количество ограничено!!!

2 сезон

iTunes

iTunes

1

iTunes

iTunes

iTunes

WEBRip

iTunes

30
pack

Новость дня

ВАЖНО

!!Акция!!

Alien_RageХит недели

RePack

Horizon Zero Dawn

ИГРА 18+

pack

RePack

jed

!!Акция!!

Alien_Rage

RePack

fifa19

RePack

Assassins Creed: Odyssey

RePack

NEED FOR SPEED™ PAYBACK

4 сезон

9 сезон

Бесстыжие 9 сезон

Все сериалы

все сериалы на PB.wtf

RePack

FAR CRY 5
  

Ленин. Неизбежность (Владимир Хотиненко) [2019, Драма, история, биография, WEB-DL 720p] piratbit.pw

Ленин. Неизбежность через торрент piratbit.pw

Размер: 2.34 GB | Добавлен: 9 мес. назад | Торрент скачан:117 раз
Скачать  

28-11-2019 05:27 Ленин. Неизбежность Скачать торрент  

Ленин. Неизбежность Год выпуска: 2019
Страна: Россия
Жанр: Драма, история, биография
Продолжительность: 01:53:55
Перевод: Не требуется
Субтитры: русские (форс. вшитые)

Режиссер: Владимир Хотиненко



В ролях: Евгений Миронов, Фёдор Бондарчук, Максим Матвеев, Александр Балуев, Дарья Екамасова, Виктория Исакова, Паулина Андреева и др.

Описание: Уже почти три года идет Первая мировая война — самая жестокая и кровавая в истории человечества. Владимир Ленин долгое время находится в иммиграции и недавно переехал в Цюрих. Посвятивший всю свою жизнь подготовке революции, Ленин упустил её начало и теперь ищет любую возможность вернуться в Россию, чтобы взять ситуацию в свои руки. А вариантов немного и в конце концов остается самый невероятный — пересечь территорию воюющей с Россией Германии на поезде…

Качество: WEB-DL 720p
Формат: MKV

Видео: MPEG-4 AVC, ~ 2600 Кбит/с, 1280x536
Аудио: AC3, 6 ch, 384 Кбит/сек
скриншот  скриншот  скриншот  скриншот  

Общее
Уникальный идентификатор : 218266987617832802615151157429322253920 (0xA434B156E9BF0B60B480BD9B4A660660)
Полное имя : D:\Lenin.Neizbezhnost.2019.WEB-DL.(720p).ExKinoRay.mkv
Формат : Matroska
Версия формата : Version 2
Размер файла : 2,34 Гбайт
Продолжительность : 1 ч. 53 м.
Общий поток : 2944 Кбит/сек
Дата кодирования : UTC 2019-11-28 02:54:26
Программа кодирования : mkvmerge v5.8.0 ('No Sleep / Pillow') built on Sep 2 2012 15:37:04
Библиотека кодирования : libebml v1.2.3 + libmatroska v1.3.0

Видео
Идентификатор : 1
Формат : AVC
Формат/Информация : Advanced Video Codec
Профиль формата : High@L4
Параметр CABAC формата : Да
Параметр RefFrames формата : 4 кадра
Идентификатор кодека : V_MPEG4/ISO/AVC
Продолжительность : 1 ч. 53 м.
Битрейт : 2600 Кбит/сек
Ширина : 1280 пикселей
Высота : 536 пикселей
Соотношение сторон : 2,40:1
Режим частоты кадров : Постоянный
Частота кадров : 24,000 кадра/сек
Цветовое пространство : YUV
Субдискретизация насыщенности : 4:2:0
Битовая глубина : 8 бит
Тип развёртки : Прогрессивная
Бит/(Пиксели*Кадры) : 0.152
Размер потока : 1,99 Гбайт (85%)
Язык : Russian
Default : Да
Forced : Нет

Аудио
Идентификатор : 2
Формат : AC-3
Формат/Информация : Audio Coding 3
Расширение режима : CM (complete main)
Параметр Endianness формата : Big
Идентификатор кодека : A_AC3
Продолжительность : 1 ч. 53 м.
Вид битрейта : Постоянный
Битрейт : 384 Кбит/сек
Каналы : 6 каналов
Расположение каналов : Front: L C R, Side: L R, LFE
Частота : 48,0 КГц
Частота кадров : 31,250 кадров/сек (1536 spf)
Метод сжатия : С потерями
Размер потока : 313 Мбайт (13%)
Язык : Russian
Default : Да
Forced : Нет

piratbit.pw



Скачать Ленин. Неизбежность через торрент http://lostpix.com/thumbs/2019-11/28/jgj328xc4bx30dtao8wqu8t8f.png Скачать фильм Ленин. Неизбежность через торрент бесплантно в хорошем качестве Описание: Уже почти три года идет Первая мировая война — самая жестокая и кровавая в истории человечества. Владимир Ленин долгое время ... 8.6 10 7
Торрент: Зарегистрирован [2019-11-28 05:27] · скачан: 117 раз
Статус: √ проверено
Размер: 2.34 GB
Как cкачать? Как скачать Ленин. Неизбежность через торрент | qTorrent

% Раздел Тема Автор DL S | L
T Наши фильмы (HD, WEB-DL 720p, 1080p) [ 4.37 GB ] Ленин. Неизбежность [2019 история биография WEBRip 1080p] bober100 Скачать
2 | 0
T Наши новые фильмы 2018-2019 [ 1.45 GB ] Ленин. Неизбежность [2019 история биография WEBRip] bober100 Скачать
3 | 0

28-11-2019 20:33  

Отключить всю рекламу на сайте

25-12-2019 11:30 Ленин. Неизбежность Скачать торрент  

фильм хороший.Но как всегда актёры одни и теже перепрынивают с сериала в сериал..Только сняли фильм о том так Парвус создавал революцию и почти привёз Ленина из зарубежа и сразу с этого сериала сделали фильм новый а костюмы и актёрский состав тот же и Бондарчук каквсегда со своей паулинкой за 2 копейки снялась в этом фильме.Глупость хоть бы постыдились.Хотя фильм приятныйpiratbit.pw



    Дорогой пользователь! Огромная просьба, поблагодарите релизера, оцените раздачу и оставьте свои комментарий, если Вы скачали Ленин. Неизбежность через торрент бесплатно! Внесите свою лепту в развитие PiratBit!
    Комментировать посты могут только пользователи прошедшие не сложную регистрацию
    Показать сообщения:    

    Ленин. Неизбежность через торрент
    Скачать бесплатно Ленин. Неизбежность
    Ленин. Неизбежность скачать торрент
    Ленин. Неизбежность смотреть онлайн
    Cкачать фильм Ленин. Неизбежность бесплатно
    Ленин. Неизбежность скачать торрент в хорошем качестве
    Ленин. Неизбежность смотреть онлайн бесплатно в хорошем качестве


    Вы не можете начинать темы
    Вы не можете отвечать на сообщения
    Вы не можете редактировать свои сообщения
    Вы не можете удалять свои сообщения
    Вы не можете голосовать в опросах
    Вы не можете прикреплять файлы к сообщениям
    Вы можете скачивать файлы