новый адрес
Ссылка на приватное зеркало всего за 1$. Внимание количество ограничено!!!

iTunes

1+1

iTunes

мы

WEB-DL

1

iTunes

Чернобыль

iTunes

Ральф против интернета

Лицензия

ПШазам

Лицензия

Оно 2

Лицензия

30
pack

Вам бонус

ВАЖНО

!!Акция!!

Alien_RageХит недели

RePack

Resident Evil 21

ИГРА 18+

pack

RePack

jed

!!Акция!!

Alien_Rage

RePack

fifa19

RePack

Assassins Creed: Odyssey

RePack

NEED FOR SPEED™ PAYBACK

3 сезон

9 сезон

Бесстыжие 9 сезон

Все сериалы

все сериалы на PB.wtf

RePack

FAR CRY 5
Ребята, катастрофически не хватает 1900р. для оплаты серверов за Октябрь (всвязи с блокировками трафик упал в 3 раза), 1-2р., выручайте.
  

Опасные секреты / Official Secrets (Гэвин Худ) [2019, триллер, драма, мелодрама, военный, биография, WEB-DL 1080p] DUB [iTunes] piratbit.pw

Опасные секреты через торрент piratbit.pw

Раздают: 28 [ 2 MB/s ] Качают: 1 [ 0 KB/s ]
Размер: 4.19 GB | Добавлен: 6 д. назад | Торрент скачан:203 раза
Скачать  

26-11-2019 16:03 Опасные секреты Скачать торрент  

Опасные секреты / Official Secrets Год выпуска: 2019
Страна: Великобритания, США
Студия: Classified Films,Clear Pictures Entertainment,GS Media,Screen Yorkshire,The Gordon Company
Жанр: триллер, драма, мелодрама, военный, биография
Продолжительность: 01:52:02
Перевод: Дублированный | iTunes
Субтитры: Английские

Режиссер: Гэвин Худ

rating

В ролях: Кира Найтли, Мэттью Гуд, Рэйф Файнс, Индира Варма, Мэтт Смит, МайЭнн Беринг, Рис Иванс, Тамсин Грейг, Джек Фартинг, Хэтти Морахэн, Конлет Хилл, Кэтрин Келли, Шон Дули, Моника Долан, Кеннет Крэнэм, Крис Ларкин, Рэй Пантаки, Джон Хеффернан (II), Питер Гиннесс, Энгус Райт, Клив Френсис, Крис Райли, Адам Бакри, Даррелл Д’Силва, Линди Уайтфорд, Джени Ди, Радж Авасти, Уилл Бартон, Ханако Футман, Никки Лин, Марк Хью-Уильямс, Атул Шарма, Манодж Ананд, Джо Уитли, Ад Дарлингтон, Пол Блэкуэлл, Джон Алан Робертс, Ли Бифорд, Марк Энтони, Доусон Грант, Крукс Тим

Описание: Шпионка британской разведки Кэтрин Ган обнародует засекреченное электронное письмо, в котором изобличаются американское и британское правительства в их незаконном вторжении в Ирак. Кэтрин и её адвокаты пытаются оправдать её действия в суде – ей вменяют нарушение Закона о государственной тайне. Под угрозой её жизнь, свобода и брак, но ей необходимо отстоять свои убеждения…

Качество: WEB-DL 1080p
Формат: MKV

Видео: MPEG-4 AVC, 1916x800, 4581 Кbit/s, 23.976 fps
Аудио #01: 48 kHz, AC3, 5.1, 384 Kbps | iTunes | RUS |
Аудио #02: 48 kHz, AC3, 5.1, 384 Kbps | Оригинал | ENG |
скриншот  скриншот  скриншот  скриншот  скриншот  

General
Unique ID : 113705299166045320525566911141292334004 (0x558AD813A826A293F9C9F2E8F904DBB4)
Complete name : F:Video111Official.Secrets.2019.WEB-DL.1080p.seleZen.mkv
Format : Matroska
Format version : Version 4
File size : 4.19 GiB
Duration : 1 h 52 min
Overall bit rate : 5 352 kb/s
Movie name : Official Secrets 2019
Encoded date : UTC 2019-12-04 20:41:02
Writing application : mkvmerge v40.0.0 ('Old Town Road + Pony') 64-bit
Writing library : libebml v1.3.9 + libmatroska v1.5.2

Video
ID : 1
Format : AVC
Format/Info : Advanced Video Codec
Format profile : High@L4
Format settings : CABAC / 5 Ref Frames
Format settings, CABAC : Yes
Format settings, Reference : 5 frames
Codec ID : V_MPEG4/ISO/AVC
Duration : 1 h 52 min
Bit rate : 4 581 kb/s
Width : 1 916 pixels
Height : 800 pixels
Display aspect ratio : 2.40:1
Frame rate mode : Constant
Frame rate : 23.976 (24000/1001) FPS
Color space : YUV
Chroma subsampling : 4:2:0
Bit depth : 8 bits
Scan type : Progressive
Bits/(Pixel*Frame) : 0.125
Stream size : 3.59 GiB (86%)
Language : English
Default : Yes
Forced : No
Color range : Limited
Color primaries : BT.709
Transfer characteristics : BT.709
Matrix coefficients : BT.709

Audio #1
ID : 2
Format : AC-3
Format/Info : Audio Coding 3
Commercial name : Dolby Digital
Codec ID : A_AC3
Duration : 1 h 52 min
Bit rate mode : Constant
Bit rate : 384 kb/s
Channel(s) : 6 channels
Channel layout : L R C LFE Ls Rs
Sampling rate : 48.0 kHz
Frame rate : 31.250 FPS (1536 SPF)
Bit depth : 16 bits
Compression mode : Lossy
Stream size : 308 MiB (7%)
Title : iTunes
Language : Russian
Service kind : Complete Main
Default : Yes
Forced : Yes

Audio #2
ID : 3
Format : AC-3
Format/Info : Audio Coding 3
Commercial name : Dolby Digital
Codec ID : A_AC3
Duration : 1 h 52 min
Bit rate mode : Constant
Bit rate : 384 kb/s
Channel(s) : 6 channels
Channel layout : L R C LFE Ls Rs
Sampling rate : 48.0 kHz
Frame rate : 31.250 FPS (1536 SPF)
Bit depth : 16 bits
Compression mode : Lossy
Stream size : 308 MiB (7%)
Title : Original
Language : English
Service kind : Complete Main
Default : No
Forced : No

Text
ID : 4
Format : UTF-8
Codec ID : S_TEXT/UTF8
Codec ID/Info : UTF-8 Plain Text
Duration : 1 h 44 min
Bit rate : 87 b/s
Count of elements : 1962
Stream size : 66.7 KiB (0%)
Title : SDH
Language : English
Default : No
Forced : No

Menu
00:00:00.000 : en:Chapter 1
00:07:31.534 : en:Chapter 2
00:12:11.939 : en:Chapter 3
00:16:52.511 : en:Chapter 4
00:24:28.008 : en:Chapter 5
00:33:55.116 : en:Chapter 6
00:36:56.338 : en:Chapter 7
00:43:38.280 : en:Chapter 8
00:49:21.957 : en:Chapter 9
01:00:42.429 : en:Chapter 10
01:08:37.028 : en:Chapter 11
01:15:35.279 : en:Chapter 12
01:23:16.822 : en:Chapter 13
01:29:14.179 : en:Chapter 14
01:37:10.279 : en:Chapter 15
01:45:51.090 : en:Chapter 16

piratbit.pw



Скачать Опасные секреты через торрент https://img16.lostpic.net/2019/12/04/a6e2dac42ef4fd9e078c0fc3065383db.jpg Скачать фильм Опасные секреты через торрент бесплантно в хорошем качестве Описание: Шпионка британской разведки Кэтрин Ган обнародует засекреченное электронное письмо, в котором изобличаются американское и ... 9.2 10 11
Info! Золотая раздача, скачанное не засчитывается.
Торрент: Зарегистрирован [2019-12-04 20:56] · скачан: 203 раз
Статус: √ проверено
Размер: 4.19 GB
Как cкачать? Как скачать Опасные секреты через торрент | qTorrent

% Раздел Тема Автор DL S | L
T Фильмы (мультфильмы) cо спонсором показа (Новинки AVI/MKV) [ 4.4 GB ] Опасные секреты / Official Secrets [2019 военный биография WEB-DL 720p] DUB [Line] bober100 Скачать
4 | 0
T Фильмы (мультфильмы) cо спонсором показа (Новинки AVI/MKV) [ 1.77 GB ] Опасные секреты / Official Secrets [2019 военный биография WEB-DLRip] DUB [Line] bober100 Скачать
8 | 0
Фильмы 2019 [DVDrip, WEB-DLRip, HDrip] (DUB, MVO) [ 1.46 GB ] Опасные секреты / Official Secrets [2019 военный биография WEB-DLRip] bober100 Скачать
57 | 4

28-11-2019 20:33  

Отключить всю рекламу на сайте

    Дорогой пользователь! Огромная просьба, поблагодарите релизера, оцените раздачу и оставьте свои комментарий, если Вы скачали Опасные секреты через торрент бесплатно! Внесите свою лепту в развитие PiratBit!
    Комментировать посты могут только пользователи прошедшие не сложную регистрацию
    Показать сообщения:    

    Опасные секреты через торрент
    Скачать бесплатно Опасные секреты
    Опасные секреты скачать торрент
    Опасные секреты смотреть онлайн
    Cкачать фильм Опасные секреты бесплатно
    Опасные секреты скачать торрент в хорошем качестве
    Опасные секреты смотреть онлайн бесплатно в хорошем качестве


    Вы не можете начинать темы
    Вы не можете отвечать на сообщения
    Вы не можете редактировать свои сообщения
    Вы не можете удалять свои сообщения
    Вы не можете голосовать в опросах
    Вы не можете прикреплять файлы к сообщениям
    Вы можете скачивать файлы