новый адрес
Ссылка на приватное зеркало всего за 1$. Внимание количество ограничено!!!

iTunes

1+1

iTunes

мы

WEB-DL

1

iTunes

Чернобыль

iTunes

Ральф против интернета

Лицензия

ПШазам

Лицензия

Оно 2

Лицензия

30
pack

Вам бонус

ВАЖНО

!!Акция!!

Alien_RageХит недели

RePack

Resident Evil 21

ИГРА 18+

pack

RePack

jed

!!Акция!!

Alien_Rage

RePack

fifa19

RePack

Assassins Creed: Odyssey

RePack

NEED FOR SPEED™ PAYBACK

3 сезон

9 сезон

Бесстыжие 9 сезон

Все сериалы

все сериалы на PB.wtf

RePack

FAR CRY 5
Ребята, катастрофически не хватает 1900р. для оплаты серверов за Октябрь (всвязи с блокировками трафик упал в 3 раза), 1-2р., выручайте.
  

Гений / Страховой агент / Сезон: 1 / Серии: 1-16 из 16 (Ольга Кандидатова) [2019, Криминал, мелодрама, WEB-DL 1080p] piratbit.pw

Гений через торрент piratbit.pw

Раздают: 1 [ 70 KB/s ]
Размер: 33.51 GB | Добавлен: 7 д. назад | Торрент скачан:5 раз
Скачать  

21-11-2019 19:05 Гений Скачать торрент  

Гений / Страховой агент
Год выпуска: 2019
Страна: Россия
Жанр: Криминал, мелодрама
Продолжительность: 00:47:00
Перевод: Не требуется
Субтитры: отсутствуют

Режиссер: Ольга Кандидатова



В ролях: Владимир Данай, Анна Арефьева, Татьяна Трунова, Варвара Владимирова, Дмитрий Поднозов, Илья Сланевский, Андрей Феськов, Сергей Колос, Денис Пьянов, Данила Воропаев, Андрей Лёвин, Глафира Козулина, Андрей Кондратьев, Алексей Титков, Павел Григорьев, Александра Сыдорук, Владимир Постников, Андрей Павловец, Мария Русских, Сергей Агафонов, Гульназ Насырова, Игорь Агеев, Максим Фомин, Виталий Олечкин, Борис Хасанов, Наталья Парашкина, Дарья Румянцева, Алёна Баркова, Наталья Мызникова, Ирина Горкунова, Анна Санникова, Станислав Шапкин, Сергей Гамов, Михаил Вассербаум, Андрей Хитрин, Александр Удальцов, Дмитрий Аршанский, Лариса Логинова, Андрей Астраханцев, Лариса Климова

Описание: После предательства союзников бывший мошенник Феликс (Илья Сланевский) «сдаёт» банду своих подельников в обмен на условный срок и участие в программе защиты свидетелей. В рамках программы Феликса перевозят в Санкт-Петербург, меняя его внешность, паспорт и жизнь. Теперь его зовут Сергей Кривошипов (Владимир Данай) и, будучи в образе совершенно другого человека, Феликс устраивается на работу в страховую компанию. Благодаря тонкому уму, проницательности и наблюдательности, он решает самые сложные вопросы, наживая при этом новых врагов.

Качество: WEB-DL 1080p
Формат: MKV

Видео: 1920х1080 (16:9), 25 fps, AVC MPEG-4 (x264), High@L4.0 ~ 6000 kbps avg, 0.116 bit/pixel
Аудио: AC3 Dolby Digital, 48.0 kHz, 2/0 (L,R) ch, 192 kbps
скриншот  скриншот  скриншот  скриншот  

General
Unique ID : 246860558832726727518926593640298084150 (0xB9B79D3E77659EF7AA7B4BD9AFD27736)
Complete name : D:\Geniy.2018.WEB-DL.(1080p).ExKinoRay\Geniy.E01.2018.WEB-DL.(1080p).ExKinoRay.mkv
Format : Matroska
Format version : Version 4 / Version 2
File size : 2.06 GiB
Duration : 48 min 3 s
Overall bit rate mode : Constant
Overall bit rate : 6 152 kb/s
Encoded date : UTC 2019-11-21 17:10:34
Writing application : mkvmerge v6.9.1 ('Blue Panther') 64bit built on Apr 18 2014 18:23:38
Writing library : libebml v1.3.0 + libmatroska v1.4.1

Video
ID : 1
Format : AVC
Format/Info : Advanced Video Codec
Format profile : High@L4.1
Format settings : 2 Ref Frames
Format settings, CABAC : No
Format settings, ReFrames : 2 frames
Codec ID : V_MPEG4/ISO/AVC
Duration : 48 min 3 s
Bit rate mode : Constant
Bit rate : 6 000 kb/s
Width : 1 920 pixels
Height : 1 080 pixels
Display aspect ratio : 16:9
Frame rate mode : Constant
Frame rate : 25.000 FPS
Standard : PAL
Color space : YUV
Chroma subsampling : 4:2:0
Bit depth : 8 bits
Scan type : Progressive
Bits/(Pixel*Frame) : 0.116
Stream size : 1.96 GiB (95%)
Default : Yes
Forced : No
Color range : Limited
Color primaries : BT.709
Transfer characteristics : BT.709
Matrix coefficients : BT.709

Audio
ID : 2
Format : AC-3
Format/Info : Audio Coding 3
Codec ID : A_AC3
Duration : 48 min 3 s
Bit rate mode : Constant
Bit rate : 192 kb/s
Channel(s) : 2 channels
Channel positions : Front: L R
Sampling rate : 48.0 kHz
Frame rate : 31.250 FPS (1536 SPF)
Bit depth : 16 bits
Compression mode : Lossy
Stream size : 66.0 MiB (3%)
Language : Russian
Service kind : Complete Main
Default : Yes
Forced : No

Внимание! Раздача ведётся путём добавления новых серий; при каждом добавлении создаётся новый торрент.
Чтобы начать докачку новой серии, пользователям необходимо сделать следующее:
1. Остановить скачивание;
2. Удалить старый торрент у себя из клиента (старые серии удалять не надо);
3. Скачать новый торрент и запустить его у себя в клиенте вместо старого, при этом указать клиенту путь в старую папку куда и должно происходить скачивание новых серий. Ваш клиент при этом должен произвести хеширование (проверку) старой папки и будет докачивать только те серии, которых у вас ещё нет. Старые серии при этом не удаляются, а продолжают раздаваться! Eсли вы уже удалили старые серии, то предотвратить повторную закачку старых серий можно, отжав галочку в соответствующих местах при запуске нового торрента.
piratbit.pw



Скачать Гений через торрент http://i111.fastpic.ru/big/2019/1121/49/bc09b9da8b5c2a139b803a96a2aa0449.jpg Скачать фильм Гений через торрент бесплантно в хорошем качестве Описание: После предательства союзников бывший мошенник Феликс (Илья Сланевский) «сдаёт» банду своих подельников в обмен на условный срок и ... 9.4 10 8
Торрент: Зарегистрирован [2019-12-02 19:30] · скачан: 5 раз
Статус: √ проверено
Размер: 33.51 GB
Как cкачать? Как скачать Гений через торрент | qTorrent

% Раздел Тема Автор DL S | L
Наши сериалы [ 20.11 GB ] Гений / Страховой агент / Сезон: 1 / Серии: 1-16 из 16 [2019 WEB-DL 720p] bober100 Скачать
4 | 0
Наши сериалы [ 11.94 GB ] Гений / Страховой агент / Сезон: 1 / Серии: 1-16 из 16 [2019 WEBRip-AVC] bober100 Скачать
4 | 0
Наши сериалы [ 9.81 GB ] Гений / Страховой агент / Сезон: 1 / Серии: 1-16 из 16 [2019 WEB-DLRip] bober100 Скачать
3 | 1
Наши сериалы [ 9.37 GB ] Гений / Страховой агент / Сезон: 1 / Серии: 1-16 из 16 [2019 SATRip] bober100 Скачать
94 | 29

28-11-2019 20:33  

Отключить всю рекламу на сайте

    Дорогой пользователь! Огромная просьба, поблагодарите релизера, оцените раздачу и оставьте свои комментарий, если Вы скачали Гений через торрент бесплатно! Внесите свою лепту в развитие PiratBit!
    Комментировать посты могут только пользователи прошедшие не сложную регистрацию
    Показать сообщения:    

    Гений через торрент
    Скачать бесплатно Гений
    Гений скачать торрент
    Гений смотреть онлайн
    Cкачать фильм Гений бесплатно
    Гений скачать торрент в хорошем качестве
    Гений смотреть онлайн бесплатно в хорошем качестве


    Вы не можете начинать темы
    Вы не можете отвечать на сообщения
    Вы не можете редактировать свои сообщения
    Вы не можете удалять свои сообщения
    Вы не можете голосовать в опросах
    Вы не можете прикреплять файлы к сообщениям
    Вы можете скачивать файлы