новый адрес
Ссылка на приватное зеркало всего за 1$. Внимание количество ограничено!!!

iTunes

1+1

iTunes

мы

WEB-DL

1

iTunes

Чернобыль

iTunes

Ральф против интернета

Лицензия

ПШазам

Лицензия

Оно 2

Лицензия

30
pack

Вам бонус

ВАЖНО

!!Акция!!

Alien_RageХит недели

RePack

Resident Evil 21

ИГРА 18+

pack

RePack

jed

!!Акция!!

Alien_Rage

RePack

fifa19

RePack

Assassins Creed: Odyssey

RePack

NEED FOR SPEED™ PAYBACK

3 сезон

9 сезон

Бесстыжие 9 сезон

Все сериалы

все сериалы на PB.wtf

RePack

FAR CRY 5
Ребята, катастрофически не хватает 1900р. для оплаты серверов за Октябрь (всвязи с блокировками трафик упал в 3 раза), 1-2р., выручайте.
  

Рэй Донован / Ray Donovan / Сезон: 7 / Серия: 1-3 из 12 (Джон Дал, Майкл Аппендаль, Такер Гейтс) [2019, Драма, криминал, WEB-DL 1080p] MVO [Jaskier] piratbit.pw

Рэй Донован через торрент piratbit.pw

Размер: 8.35 GB | Добавлен: 6 д. назад | Торрент скачан:2 раза
Скачать  

21-11-2019 07:48 Рэй Донован Скачать торрент  

✘ Рэй Донован | Ray Donovan ✘ ✦ Год выпуска: 2019
✦ Страна: США
✦ Жанр: Драма, криминал
✦ Продолжительность: ~00:55:00
✦ Перевод: Профессиональный (многоголосый закадровый) | Jaskier
✦ Субтитры: | английские |

✦ Режиссёр: Джон Дал, Майкл Аппендаль, Такер Гейтс

✦ В ролях: Лив Шрайбер, Паула Малкомсон, Кэтрин Монниг, Пуч Холл, Кэррис Дорси, Девон Бэгби, Джон Войт, Стивен Бауэр, Уильям Стэнфорд Дэвис, Майкл МакГрэйди, Фрэнк Уэйли, Эллиотт Гулд, Октавиус Дж. Джонсон, Эмбир Чилдерс и др.

✦ Описание: Лив Шрайбер возвращается в роли профессионального чистильщика — история Рэя Донована продолжается. В седьмом сезоне наш антигерой изо всех сил старается превратится в того человека, в ком нуждается его семья. И когда у него намечается небольшой прогресс в работе с психотерапевтом (приглашённая звезда Алан Алда), вновь возникают призраки прошлого. Они вынуждают Донована вернуться к прежней жизни. Ему приходится балансировать между решением проблем своих клиентов и тем, чтобы окончательно не слететь с катушек самому (и вдобавок не попасться властям). Тем временем коррупционные делишки нью-йоркского мэра приносят за собой отголоски тёмного прошлого папаши Рэя Микки (Джон Войт).



✦ Качество: WEB-DL 1080p
✦ Формат: | MKV | H.264 |

✦ Видео: ~ 7500 kbps | 1920x1080 (16:9)
✦ Аудио#1 Ru: AC3 | 48.0 KHz | 6 ch | 384 kbps
✦ Аудио#2 En: AC3 | 48.0 KHz | 6 ch | 384 kbps
скриншот  скриншот  скриншот  

Общее
Уникальный идентификатор : 171017281966243745900807961734889396077 (0x80A8BAFDC3E75AD9ADE75635A660D76D)
Полное имя : C:\Ray Donovan. Season 7 (WEB-DL l 1080p l Jaskier)\Ray.Donovan.S07E01.1080p.WEB-DL.DD5.1.H.264-Jaskier.mkv
Формат : Matroska
Версия формата : Version 2
Размер файла : 3,01 Гбайт
Продолжительность : 50 м. 59 с.
Общий поток : 8451 Кбит/сек
Дата кодирования : UTC 2019-11-20 22:00:06
Программа кодирования : mkvmerge v7.8.0 ('River Man') 32bit built on Apr 3 2015 12:11:22
Библиотека кодирования : libebml v1.3.1 + libmatroska v1.4.2

Видео
Идентификатор : 1
Формат : AVC
Формат/Информация : Advanced Video Codec
Профиль формата : High@L4
Настройки формата : CABAC / 4 Ref Frames
Параметр CABAC формата : Да
Параметр RefFrames формата : 4 кадра
Идентификатор кодека : V_MPEG4/ISO/AVC
Продолжительность : 50 м. 59 с.
Вид битрейта : Постоянный
Битрейт : 7515 Кбит/сек
Номинальный битрейт : 10000 Кбит/сек
Ширина : 1920 пикселей
Высота : 1080 пикселей
Соотношение сторон : 16:9
Режим частоты кадров : Постоянный
Частота кадров : 23,976 (24000/1001) кадра/сек
Цветовое пространство : YUV
Субдискретизация насыщенности : 4:2:0
Битовая глубина : 8 бит
Тип развёртки : Прогрессивная
Бит/(Пиксели*Кадры) : 0.151
Размер потока : 2,68 Гбайт (89%)
Язык : English
Default : Да
Forced : Нет
Цветовой диапазон : Limited
Основные цвета : BT.709
Характеристики трансфера : BT.709
Коэффициенты матрицы : BT.709

Аудио #1
Идентификатор : 2
Формат : AC-3
Формат/Информация : Audio Coding 3
Коммерческое название : Dolby Digital
Идентификатор кодека : A_AC3
Продолжительность : 50 м. 59 с.
Вид битрейта : Постоянный
Битрейт : 384 Кбит/сек
Каналы : 6 каналов
ChannelLayout : L R C LFE Ls Rs
Частота : 48,0 КГц
Частота кадров : 31,250 кадров/сек (1536 SPF)
Битовая глубина : 16 бит
Метод сжатия : С потерями
Размер потока : 140 Мбайт (5%)
Заголовок : Jaskier
Язык : Russian
ServiceKind/String : Complete Main
Default : Да
Forced : Нет

Аудио #2
Идентификатор : 3
Формат : AC-3
Формат/Информация : Audio Coding 3
Коммерческое название : Dolby Digital
Идентификатор кодека : A_AC3
Продолжительность : 50 м. 59 с.
Вид битрейта : Постоянный
Битрейт : 384 Кбит/сек
Каналы : 6 каналов
ChannelLayout : L R C LFE Ls Rs
Частота : 48,0 КГц
Частота кадров : 31,250 кадров/сек (1536 SPF)
Битовая глубина : 16 бит
Метод сжатия : С потерями
Размер потока : 140 Мбайт (5%)
Язык : English
ServiceKind/String : Complete Main
Default : Нет
Forced : Нет

Текст
Идентификатор : 4
Формат : UTF-8
Идентификатор кодека : S_TEXT/UTF8
Идентификатор кодека/Информация : UTF-8 Plain Text
Язык : English
Default : Нет
Forced : Нет

При каждом добавлении создаётся новый торрент. Чтобы начать докачку новой серии, пользователям необходимо сделать следующее:
- остановить скачивание;
- удалить старый торрент у себя из клиента (старые серии удалять не надо);
- скачать новый торрент и запустить его у себя в клиенте вместо старого, при этом указать клиенту путь в старую папку, куда и должно происходить скачивание новых серий.
piratbit.pw



Скачать Рэй Донован через торрент https://d.radikal.ru/d32/1911/6b/07d0e5329a4b.png Скачать фильм Рэй Донован через торрент бесплантно в хорошем качестве Описание: Лив Шрайбер возвращается в роли профессионального чистильщика — история Рэя Донована продолжается. В седьмом сезоне наш антигерой ... 10 10 2
Торрент: Зарегистрирован [2019-12-04 18:23] · скачан: 2 раз
Статус: √ проверено
Размер: 8.35 GB
Как cкачать? Как скачать Рэй Донован через торрент | qTorrent

% Раздел Тема Автор DL S | L
Рэй Донован [ 8.61 GB ] Рэй Донован / Ray Donovan / Сезон: 7 / Серия: 1-3 из 12 [2019 WEB-DL 1080p] MVO [Novamedia / Amedia] bober100 Скачать
1 | 0
Рэй Донован [ 4.17 GB ] Рэй Донован / Ray Donovan / Сезон: 7 / Серия: 1-3 из 12 [2019 WEB-DL 720p] MVO [Jaskier] bober100 Скачать
1 | 0
Рэй Донован [ 1.74 GB ] Рэй Донован / Ray Donovan / Сезон: 7 / Серия: 1-3 из 12 [2019 WEB-DLRip] MVO [Jaskier] bober100 Скачать
1 | 0
Рэй Донован [ 2.08 GB ] Рэй Донован / Ray Donovan / Сезон: 7 / Серия: 1-3 из 12 [2019 WEB-DLRip] MVO [NewStudio] bober100 Скачать
1 | 1
Рэй Донован [ 4.7 GB ] Рэй Донован / Ray Donovan / Сезон: 7 / Серия: 1-3 из 12 [2019 WEB-DL 720p] MVO [NewStudio] bober100 Скачать
2 | 2
Рэй Донован [ 8.88 GB ] Рэй Донован / Ray Donovan / Сезон: 7 / Серия: 1-3 из 12 [2019 WEB-DL 1080p] MVO [NewStudio] bober100 Скачать
2 | 1


Последний раз редактировалось: bober100 (2019-12-04 18:23), всего редактировалось 2 раз(а)

28-11-2019 20:33  

Отключить всю рекламу на сайте

21-11-2019 09:02 Рэй Донован Скачать торрент  

Крутяк)piratbit.pw



29-11-2019 08:30 Рэй Донован Скачать торрент  

А как узнать об новый серий...мониторить постоянно страницу...(?piratbit.pw



    Дорогой пользователь! Огромная просьба, поблагодарите релизера, оцените раздачу и оставьте свои комментарий, если Вы скачали Рэй Донован через торрент бесплатно! Внесите свою лепту в развитие PiratBit!
    Комментировать посты могут только пользователи прошедшие не сложную регистрацию
    Показать сообщения:    

    Рэй Донован через торрент
    Скачать бесплатно Рэй Донован
    Рэй Донован скачать торрент
    Рэй Донован смотреть онлайн
    Cкачать фильм Рэй Донован бесплатно
    Рэй Донован скачать торрент в хорошем качестве
    Рэй Донован смотреть онлайн бесплатно в хорошем качестве


    Вы не можете начинать темы
    Вы не можете отвечать на сообщения
    Вы не можете редактировать свои сообщения
    Вы не можете удалять свои сообщения
    Вы не можете голосовать в опросах
    Вы не можете прикреплять файлы к сообщениям
    Вы можете скачивать файлы