Marvel's Avengers Deluxe Edition (супер цена) 159р. Внимание количество ограничено!!!

2 сезон

iTunes

iTunes

1

iTunes

iTunes

iTunes

WEBRip

iTunes

30
pack

Новость дня

ВАЖНО

!!Акция!!

Alien_RageХит недели

RePack

Horizon Zero Dawn

ИГРА 18+

pack

RePack

jed

!!Акция!!

Alien_Rage

RePack

fifa19

RePack

Assassins Creed: Odyssey

RePack

NEED FOR SPEED™ PAYBACK

4 сезон

9 сезон

Бесстыжие 9 сезон

Все сериалы

все сериалы на PB.wtf

RePack

FAR CRY 5
  

Девушки бывают разные (Сарик Андреасян) [2019, Комедия, WEB-DL 1080p] [iTunes] piratbit.pw

Девушки бывают разные через торрент piratbit.pw

Размер: 3.42 GB | Добавлен: 9 мес. назад | Торрент скачан:602 раза
Скачать  

19-11-2019 18:57 Девушки бывают разные Скачать торрент  

Девушки бывают разные
Год выпуска: 2019
Страна: Россия
Жанр: Комедия
Продолжительность: 01:29:14
Перевод: Не требуется | iTunes
Субтитры: отсутствуют

Режиссер: Сарик Андреасян

rating

В ролях: Дмитрий Нагиев, Роман Попов, Артем Сучков, Дмитрий Власкин, Владимир Яглыч, Зоя Бербер, Елизавета Моряк, Алена Чехова

Описание: Это история о трёх друзьях, решивших покататься на серфе в Мексике. Все как полагается: океан, девушки и золотой песок. История не предвещает неожиданностей. Но не для наших героев, которые первым делом как следует отметили свой приезд. С трудом проснувшись наутро, парни обнаруживают себя посреди пляжа, они в замешательстве - не помнят, что же произошло накануне. Но вскоре появляются люди, которые освежают им память: оказывается, прошлой ночью парни страшно навредили международному криминальному авторитету Хуану, который по какой-то причине хочет их убить. Скрываясь от преследования, без денег и документов, они находят спасение - переодеваются в девушек и участвуют в женском турнире по сёрфингу. Победа поможет выиграть сто тысяч долларов и выбраться из страны. Но они еще не знают, что их неидеальному плану помешают любовь, секретные спецслужбы, мафия и даже бойцовые петухи.

Качество: WEB-DL 1080p
Формат: MKV

Видео: MPEG4 AVC Video, H264, 2.40:1, 1920x800, 24 fps, 5097 kbps
Аудио: Russian (AC3, 6 ch, 384 kbps, 16 bits, 48.0 KHz) - оригинал
скриншот  скриншот  скриншот  скриншот  

General
Unique ID : 221014064901784692167770124994939612657 (0xA645C2B4E144E0409FAEA6AFD6C26DF1)
Complete name : D:\Devushki.byvayut.raznye.2019.WEB-DL.(1080p).Getty.mkv
Format : Matroska
Format version : Version 4 / Version 2
File size : 3.42 GiB
Duration : 1 h 29 min
Overall bit rate : 5 483 kb/s
Movie name : Devushki.byvayut.raznye.2019.WEB-DL.(1080p).Getty
Encoded date : UTC 2019-11-20 23:12:57
Writing application : mkvmerge v7.8.0 ('River Man') 32bit built on Mar 27 2015 16:18:02
Writing library : libebml v1.3.1 + libmatroska v1.4.2

Video
ID : 1
Format : AVC
Format/Info : Advanced Video Codec
Format profile : High@L4
Format settings : CABAC / 4 Ref Frames
Format settings, CABAC : Yes
Format settings, ReFrames : 4 frames
Format settings, GOP : M=7, N=48
Codec ID : V_MPEG4/ISO/AVC
Duration : 1 h 29 min
Bit rate : 5 097 kb/s
Width : 1 920 pixels
Height : 800 pixels
Display aspect ratio : 2.40:1
Frame rate mode : Constant
Frame rate : 24.000 FPS
Color space : YUV
Chroma subsampling : 4:2:0
Bit depth : 8 bits
Scan type : Progressive
Bits/(Pixel*Frame) : 0.138
Stream size : 3.18 GiB (93%)
Default : Yes
Forced : No

Audio
ID : 2
Format : AC-3
Format/Info : Audio Coding 3
Codec ID : A_AC3
Duration : 1 h 29 min
Bit rate mode : Constant
Bit rate : 384 kb/s
Channel(s) : 6 channels
Channel positions : Front: L C R, Side: L R, LFE
Sampling rate : 48.0 kHz
Frame rate : 31.250 FPS (1536 SPF)
Bit depth : 16 bits
Compression mode : Lossy
Stream size : 245 MiB (7%)
Service kind : Complete Main
Default : Yes
Forced : No

piratbit.pw



Скачать Девушки бывают разные через торрент https://d.radikal.ru/d32/1911/53/4dd68e6847c9.jpg Скачать фильм Девушки бывают разные через торрент бесплантно в хорошем качестве Описание: Это история о трёх друзьях, решивших покататься на серфе в Мексике. Все как полагается: океан, девушки и золотой песок. История ... 9.7 10 27
Торрент: Зарегистрирован [2019-11-21 00:34] · скачан: 602 раз
Статус: √ проверено
Размер: 3.42 GB
Как cкачать? Как скачать Девушки бывают разные через торрент | qTorrent

% Раздел Тема Автор DL S | L
Наши новые фильмы 2018-2019 [ 745 MB ] Девушки бывают разные [2019 WEB-DLRip] bober100 Скачать
4 | 0
Наши новые фильмы 2018-2019 [ 1.46 GB ] Девушки бывают разные [2019 WEB-DLRip-AVC] bober100 Скачать
2 | 0
Наши фильмы (HD, WEB-DL 720p, 1080p) [ 1.84 GB ] Девушки бывают разные [2019 WEB-DL 720p] bober100 Скачать
2 | 0
Наши новые фильмы 2018-2019 [ 1.37 GB ] Девушки бывают разные [2019 WEB-DLRip] bober100 Скачать
2 | 0


Последний раз редактировалось: bober100 (2019-11-21 00:34), всего редактировалось 1 раз

28-11-2019 20:33  

Отключить всю рекламу на сайте

21-11-2019 16:30 Девушки бывают разные Скачать торрент  

Очередной треш на деньги налогоплательщиков из фонда киноpiratbit.pw



21-11-2019 20:13 Девушки бывают разные Скачать торрент  

мега ка...................piratbit.pw



    Дорогой пользователь! Огромная просьба, поблагодарите релизера, оцените раздачу и оставьте свои комментарий, если Вы скачали Девушки бывают разные через торрент бесплатно! Внесите свою лепту в развитие PiratBit!
    Комментировать посты могут только пользователи прошедшие не сложную регистрацию
    Показать сообщения:    

    Девушки бывают разные через торрент
    Скачать бесплатно Девушки бывают разные
    Девушки бывают разные скачать торрент
    Девушки бывают разные смотреть онлайн
    Cкачать фильм Девушки бывают разные бесплатно
    Девушки бывают разные скачать торрент в хорошем качестве
    Девушки бывают разные смотреть онлайн бесплатно в хорошем качестве


    Вы не можете начинать темы
    Вы не можете отвечать на сообщения
    Вы не можете редактировать свои сообщения
    Вы не можете удалять свои сообщения
    Вы не можете голосовать в опросах
    Вы не можете прикреплять файлы к сообщениям
    Вы можете скачивать файлы