новый адрес
Ссылка на приватное зеркало всего за 1$. Внимание количество ограничено!!!

iTunes

1+1

iTunes

мы

WEB-DL

1

iTunes

Чернобыль

iTunes

Ральф против интернета

Лицензия

ПШазам

Лицензия

Оно 2

Лицензия

30
pack

Вам бонус

ВАЖНО

!!Акция!!

Alien_RageХит недели

RePack

Resident Evil 21

ИГРА 18+

pack

RePack

jed

!!Акция!!

Alien_Rage

RePack

fifa19

RePack

Assassins Creed: Odyssey

RePack

NEED FOR SPEED™ PAYBACK

3 сезон

9 сезон

Бесстыжие 9 сезон

Все сериалы

все сериалы на PB.wtf

RePack

FAR CRY 5
Ребята, катастрофически не хватает 1900р. для оплаты серверов за Октябрь (всвязи с блокировками трафик упал в 3 раза), 1-2р., выручайте.
  

Мандалорец / The Mandalorian / Сезон: 1 / Серии: 1-5 из 8 (Дебора Чоу) [2019, фантастика, боевик, приключения, WEB-DL 720p] MVO [Lostfilm] piratbit.pw

Мандалорец через торрент piratbit.pw

Раздают: 4 [ 1 MB/s ] Качают: 4 [ 0 KB/s ]
Размер: 7.04 GB | Добавлен: 1 ч. 55 мин. назад | Торрент скачан:2 раза
Скачать  

18-11-2019 08:15 Мандалорец Скачать торрент  

Мандалорец | The Mandalorian
«***»
Производство: США
Год выпуска: 2019
Жанр: фантастика, боевик, приключения
Продолжительность: ~ 00:38:00 серия
Премьера (мир): 12 ноября 2019
Перевод: Профессиональный (многоголосый закадровый) | Lostfilm
Субтитры: Rus (Forced, notabenoid), Eng (SDH)

Режиссёр: Дебора Чоу, Рик Фамуйива, Дэйв Филони

В ролях: Педро Паскаль, Кайл Пацек, Брендан Уэйн, Бернард Баллен, Александра Гилман, Тейт Флетчер, Омид Абтахи

Описание:
Одинокий мандалорец-наёмник живёт на краю обитаемой галактики, куда не дотягивается закон Новой Республики. Представитель некогда могучей расы благородных воинов теперь вынужден влачить жалкое существование среди отбросов общества.



Качество: WEB-DL 720p
Формат: MKV

Видео: AVC, 1280 x 720 (1.778), 23.976 fps, ~4234 kbps
Аудио Rus: AC-3, 48 kHz, 6 ch, 640 kbps |Lostfilm|
Аудио Eng: Е-AC-3, 48 kHz, 6 ch, 768 kbps |Original|


Реклама: Отсутствует
Общее
Уникальный идентификатор : 129480280105745962675966532359438222083 (0x6168FEAF8F508C6211AB97DAFF284303)
Полное имя : E:\The.Mandalorian.s01.WEB-DL.720p.LostFilm\The.Mandalorian.S01E01.WEB-DL.720p.LostFilm.mkv
Формат : Matroska
Версия формата : Version 4
Размер файла : 1,53 Гбайт
Продолжительность : 38 м. 46 с.
Режим общего битрейта : Переменный
Общий поток : 5644 Кбит/сек
Дата кодирования : UTC 2019-11-17 20:01:16
Программа кодирования : mkvmerge v40.0.0 ('Old Town Road + Pony') 64-bit
Библиотека кодирования : libebml v1.3.9 + libmatroska v1.5.2

Видео
Идентификатор : 1
Формат : AVC
Формат/Информация : Advanced Video Codec
Профиль формата : High@L3.1
Настройки формата : CABAC / 4 Ref Frames
Параметр CABAC формата : Да
Параметр RefFrames формата : 4 кадра
Идентификатор кодека : V_MPEG4/ISO/AVC
Продолжительность : 38 м. 46 с.
Вид битрейта : Переменный
Битрейт : 4234 Кбит/сек
Максимальный битрейт : 6375 Кбит/сек
Ширина : 1280 пикселей
Высота : 720 пикселей
Соотношение сторон : 16:9
Режим частоты кадров : Постоянный
Частота кадров : 23,976 (24000/1001) кадра/сек
Цветовое пространство : YUV
Субдискретизация насыщенности : 4:2:0
Битовая глубина : 8 бит
Тип развёртки : Прогрессивная
Бит/(Пиксели*Кадры) : 0.192
Размер потока : 1,15 Гбайт (75%)
Язык : English
Default : Да
Forced : Нет
Цветовой диапазон : Limited
Основные цвета : BT.709
Характеристики трансфера : BT.709
Коэффициенты матрицы : BT.709

Аудио #1
Идентификатор : 2
Формат : AC-3
Формат/Информация : Audio Coding 3
Коммерческое название : Dolby Digital
Идентификатор кодека : A_AC3
Продолжительность : 38 м. 46 с.
Вид битрейта : Постоянный
Битрейт : 640 Кбит/сек
Каналы : 6 каналов
ChannelLayout : L R C LFE Ls Rs
Частота : 48,0 КГц
Частота кадров : 31,250 кадров/сек (1536 SPF)
Метод сжатия : С потерями
Размер потока : 177 Мбайт (11%)
Язык : Russian
ServiceKind/String : Complete Main
Default : Да
Forced : Нет

Аудио #2
Идентификатор : 3
Формат : E-AC-3 JOC
Формат/Информация : Enhanced AC-3 with Joint Object Coding
Коммерческое название : Dolby Digital Plus with Dolby Atmos
Идентификатор кодека : A_EAC3
Продолжительность : 38 м. 46 с.
Вид битрейта : Постоянный
Битрейт : 768 Кбит/сек
Каналы : 6 каналов
ChannelLayout : L R C LFE Ls Rs
Частота : 48,0 КГц
Частота кадров : 31,250 кадров/сек (1536 SPF)
Метод сжатия : С потерями
Размер потока : 213 Мбайт (14%)
Язык : English
ServiceKind/String : Complete Main
Default : Нет
Forced : Нет
ComplexityIndex : 16
NumberOfDynamicObjects : 15
BedChannelCount/String : 1 канал
BedChannelConfiguration : LFE

Текст #1
Идентификатор : 4
Формат : UTF-8
Идентификатор кодека : S_TEXT/UTF8
Идентификатор кодека/Информация : UTF-8 Plain Text
Продолжительность : 3 м. 28 с.
Битрейт : 22 бит/сек
ElementCount : 12
Размер потока : 590 байт (0%)
Язык : Russian
Default : Да
Forced : Да

Текст #2
Идентификатор : 5
Формат : UTF-8
Идентификатор кодека : S_TEXT/UTF8
Идентификатор кодека/Информация : UTF-8 Plain Text
Продолжительность : 35 м. 37 с.
Битрейт : 52 бит/сек
ElementCount : 305
Размер потока : 13,8 Кбайт (0%)
Язык : Russian
Default : Нет
Forced : Нет

Текст #3
Идентификатор : 6
Формат : UTF-8
Идентификатор кодека : S_TEXT/UTF8
Идентификатор кодека/Информация : UTF-8 Plain Text
Продолжительность : 35 м. 34 с.
Битрейт : 41 бит/сек
ElementCount : 428
Размер потока : 10,9 Кбайт (0%)
Язык : English
Default : Нет
Forced : Нет

Текст #4
Идентификатор : 7
Формат : UTF-8
Идентификатор кодека : S_TEXT/UTF8
Идентификатор кодека/Информация : UTF-8 Plain Text
Продолжительность : 34 м. 54 с.
Битрейт : 29 бит/сек
ElementCount : 288
Размер потока : 7,63 Кбайт (0%)
Язык : English
Default : Нет
Forced : Нет
Раздача ведётся путём добавления новых серий; при каждом добавлении создаётся новый торрент.
Чтобы начать докачку новой серии, пользователям необходимо сделать следующее:
1. остановить скачивание,
2. удалить старый торрент у себя из клиента (старые серии удалять не надо),
3. скачать новый торрент и запустить его у себя в клиенте вместо старого, при этом указать клиенту путь в старую папку, куда и должно происходить скачивание новых серий.

Ваш клиент при этом должен произвести хеширование (проверку) старой папки (если не производит сам - помогите ему сделать это), и будет докачивать только те серии которых у вас ещё нет. Старые серии при этом не удаляются, а продолжают раздаваться!

Eсли вы уже удалили старые серии, то предотвратить повторную закачку старых серий можно, отжав галочку в соответствующих местах при запуске нового торрента. По возможности, желательно не удалять старые серии как можно дольше, чтобы релизёр не столько продолжал раздавать старые серии, а смог сконцентрироваться на новых.

Совет для тех, кто не хочет ждать перехеширования:
Создайте ещё одну папку рядом с папкой сериала (рядом, а не в ней!!!). Каждую новую серию после удачной загрузки копируйте в новую папку так чтобы ваша основная папка всегда была пуста. Когда ваш новый торрент предложит вам закачать все файлы, выберете только последнюю. Для сидирования же укажите адрес новой папки.

Как закачать отдельный файл из торрента или докачать ранее пропущенные файлы торрента!
1. Открыть торрент
2. Снять галки с тех файлов торрента, которые мы не хотим закачивать. Оставляем только на нужных нам файлах (файле).
3. Нажать О.К.

В клиенте utorrent

Инструкция

1) Открыть торрент


2) Снять галки с тех файлов торрента, которые мы не хотим закачивать:

* либо вручную, снимая с каждого файла галку( скрин №1)
* либо, нажав кнопку "Снять метки (Select None)", сняв сразу со всех файлов(скрин №2)
№1

№2

Оставляем только на нужных нам файлах (файле).

3)Нажать О.К
Приятного просмотра!!!piratbit.pw



Скачать Мандалорец через торрент https://c.radikal.ru/c39/1911/12/e287138fc94a.png Скачать фильм Мандалорец через торрент бесплантно в хорошем качестве Описание:Одинокий мандалорец-наёмник живёт на краю обитаемой галактики, куда не дотягивается закон Новой Республики. Представитель некогда ... 10 10 10
Торрент: Зарегистрирован [2019-12-10 20:02] · скачан: 2 раз
Статус: √ проверено
Размер: 7.04 GB
Как cкачать? Как скачать Мандалорец через торрент | qTorrent

% Раздел Тема Автор DL S | L
T Зарубежные сериалы [ 9.26 GB ] Мандалорец / The Mandalorian / Сезон: 1 / Серии: 1-5 из 8 [2019 WEBRip 1080p] MVO [Octopus] bober100 Скачать
5 | 13
Зарубежные сериалы [ 12.13 GB ] Мандалорец / The Mandalorian / Сезон 1 / Серии 1-5 из 8 [2019 WEB-DL 1080p] [MVO] killermax2013 Скачать
5 | 8
Зарубежные сериалы [ 22.28 GB ] Мандалорец / The Mandalorian / Сезон: 1 / Серии: 1-5 из 8 [2019 UHD WEB-DL 2160p] MVO [Lostfilm] bober100 Скачать
1 | 5
Зарубежные сериалы [ 1.57 GB ] Мандалорец / The Mandalorian / Сезон: 1 / Серии: 1-5 из 8 [2019 WEBRip] DVO [Kerob] bober100 Скачать
3 | 7
Зарубежные сериалы [ 12.4 GB ] Мандалорец / The Mandalorian / Сезон: 1 / Серии: 1-5 из 8 [2019 WEBRip 1080p] MVO [Jaskier] bober100 Скачать
14 | 20
T Зарубежные сериалы [ 2.39 GB ] Мандалорец / The Mandalorian / Сезон 1 / Серии 1-5 из 8 [2019 WEBRip] [MVO] killermax2013 Скачать
5 | 5
Зарубежные сериалы [ 2.49 GB ] Мандалорец / The Mandalorian / Сезон: 1 / Серии: 1-5 из 8 [2019 WEB-DLRip] MVO [AlexFilm] bober100 Скачать
10 | 14


Последний раз редактировалось: bober100 (2019-12-10 20:02), всего редактировалось 3 раз(а)

28-11-2019 20:33  

Отключить всю рекламу на сайте


20-11-2019 02:05 Мандалорец Скачать торрент  

Классный фантастический сериал по сюжету Звездных Войнpiratbit.pw



24-11-2019 21:38 Мандалорец Скачать торрент  

Ждем 3-ю серию в озвучке Лоста. Спасибо!piratbit.pw



10-12-2019 15:53 Мандалорец Скачать торрент  

Ждем 5-ю серию и следующие в озвучке Лоста. Спасибо!piratbit.pw



    Дорогой пользователь! Огромная просьба, поблагодарите релизера, оцените раздачу и оставьте свои комментарий, если Вы скачали Мандалорец через торрент бесплатно! Внесите свою лепту в развитие PiratBit!
    Комментировать посты могут только пользователи прошедшие не сложную регистрацию
    Показать сообщения:    

    Мандалорец через торрент
    Скачать бесплатно Мандалорец
    Мандалорец скачать торрент
    Мандалорец смотреть онлайн
    Cкачать фильм Мандалорец бесплатно
    Мандалорец скачать торрент в хорошем качестве
    Мандалорец смотреть онлайн бесплатно в хорошем качестве


    Вы не можете начинать темы
    Вы не можете отвечать на сообщения
    Вы не можете редактировать свои сообщения
    Вы не можете удалять свои сообщения
    Вы не можете голосовать в опросах
    Вы не можете прикреплять файлы к сообщениям
    Вы можете скачивать файлы