Ссылка на приватное зеркало всего за 1$. Внимание количество ограничено!!!


iTunes

1+1

iTunes

мы

WEB-DL

1

iTunes

Чернобыль

iTunes

Ральф против интернета

Лицензия

ПШазам

Лицензия

Оно 2

WEB-DL

30
pack

Вам бонус

ВАЖНО

!!Акция!!

Alien_RageХит недели

RePack

Resident Evil 21

ИГРА 18+

pack

RePack

jed

!!Акция!!

Alien_Rage

RePack

fifa19

RePack

Assassins Creed: Odyssey

RePack

NEED FOR SPEED™ PAYBACK

4 сезон

9 сезон

Бесстыжие 9 сезон

Все сериалы

все сериалы на PB.wtf

RePack

FAR CRY 5
Ребята, катастрофически не хватает 1900р. для оплаты серверов за Октябрь (всвязи с блокировками трафик упал в 3 раза), 1-2р., выручайте.
  

Остров монстров / Legend of Hallowaiian (Шон Патрик О’Рейли) [2018, Мультфильм, фэнтези, приключения, семейный, WEB-DL 720p] MVO [iTunes] piratbit.pw

Остров монстров через торрент piratbit.pw

Раздают: 23 [ 32 KB/s ]
Размер: 2.41 GB | Добавлен: 27 д. назад | Торрент скачан:228 раз
Скачать  

18-11-2019 06:13 Остров монстров Скачать торрент  

Остров монстров / Legend of Hallowaiian
Год выпуска: 2018
Страна: США
Жанр: Мультфильм, фэнтези, приключения, семейный
Продолжительность: 01:18:13
Перевод: Профессиональный многоголосый | iTunes
Субтитры: отсутствуют

Режиссер: Шон Патрик О’Рейли

rating

В ролях: Ванесса Уильямс, Марк Хэмилл, Тиа Каррере, Ноа Шнапп, Марк Дакаскос, Тейлор Груббс, Кифер О’Рейли

Описание: В старом городе Хэллоуиан трое молодых друзей, Кай, Эдди и Лейлани, ловя волны на закате находят загадочную скульптуру в тайной пещере. Вскоре они понимают, что нанесли на остров древнее зло в виде гигантского монстра из ананасового дерева. Для того, чтобы победить зло, им предстоит раскрыть свое наследие и поверить в древние истории своих предков.

Качество: WEB-DL 720p
Формат: MKV

Видео: 1280x720 (16:9), 24 fps, MPEG-4 AVC ~ 4023 Кbps avg, 0.182 bit/pixel
Аудио: AC3, 48 kHz, 6 ch, ~384.00 kbps avg | русский | iTunes
скриншот  скриншот  скриншот  скриншот  скриншот  

Общее
Уникальный идентификатор : 125199533710575842589927297844352684198 (0x5E308D97F0539038F1A80F959FF490A6)
Полное имя : G:LEGEND_OF_HALLOWALIAN (2018) WEB-DL 720p.mkv
Формат : Matroska
Версия формата : Version 4 / Version 2
Размер файла : 2,41 Гбайт
Продолжительность : 1 ч. 18 м.
Общий поток : 4409 Кбит/сек
Название фильма : LEGEND_OF_HALLOWALIAN (2018) WEB-DL 720p
Дата кодирования : UTC 2019-11-18 05:45:14
Программа кодирования : mkvmerge v38.0.0 ('The Silent Type') 64-bit
Библиотека кодирования : libebml v1.3.9 + libmatroska v1.5.2
Обложка : Yes
Attachments : cover.jpg / cover.jpg

Видео
Идентификатор : 1
Формат : AVC
Формат/Информация : Advanced Video Codec
Профиль формата : High@L3.1
Настройки формата : 2 Ref Frames
Параметр CABAC формата : Нет
Параметр RefFrames формата : 2 кадра
Параметр GOP формата : N=1
Идентификатор кодека : V_MPEG4/ISO/AVC
Продолжительность : 1 ч. 18 м.
Битрейт : 4023 Кбит/сек
Ширина : 1280 пикселей
Высота : 720 пикселей
Соотношение сторон : 16:9
Режим частоты кадров : Постоянный
Частота кадров : 24,000 кадра/сек
Цветовое пространство : YUV
Субдискретизация насыщенности : 4:2:0
Битовая глубина : 8 бит
Тип развёртки : Прогрессивная
Бит/(Пиксели*Кадры) : 0.182
Размер потока : 2,20 Гбайт (91%)
Язык : English
Default : Да
Forced : Нет
Цветовой диапазон : Limited
Основные цвета : BT.709
Характеристики трансфера : BT.709
Коэффициенты матрицы : BT.709

Аудио
Идентификатор : 2
Формат : AC-3
Формат/Информация : Audio Coding 3
Идентификатор кодека : A_AC3
Продолжительность : 1 ч. 18 м.
Вид битрейта : Постоянный
Битрейт : 384 Кбит/сек
Каналы : 6 каналов
Расположение каналов : Front: L C R, Side: L R, LFE
Частота : 48,0 КГц
Частота кадров : 31,250 кадров/сек (1536 SPF)
Битовая глубина : 16 бит
Метод сжатия : С потерями
Размер потока : 215 Мбайт (9%)
Заголовок : iTunes
Язык : Russian
Default : Да
Forced : Нет

Меню
00:00:00.000 : en:Глава 1
00:08:25.708 : en:Глава 2
00:16:43.124 : en:Глава 3
00:24:54.582 : en:Глава 4
00:33:02.665 : en:Глава 5
00:41:18.373 : en:Глава 6
00:49:57.664 : en:Глава 7
00:58:02.955 : en:Глава 8
01:06:09.621 : en:Глава 9

piratbit.pw



Скачать Остров монстров через торрент https://i111.fastpic.ru/big/2019/1118/ac/b43212abc1d71f2469663951b64dbeac.jpg Скачать фильм Остров монстров через торрент бесплантно в хорошем качестве Описание: В старом городе Хэллоуиан трое молодых друзей, Кай, Эдди и Лейлани, ловя волны на закате находят загадочную скульптуру в тайной ... 9.8 10 13
Торрент: Зарегистрирован [2019-11-18 06:13] · скачан: 228 раз
Статус: √ проверено
Размер: 2.41 GB
Как cкачать? Как скачать Остров монстров через торрент | qTorrent

28-11-2019 20:33  

Отключить всю рекламу на сайте

25-11-2019 18:47 Остров монстров Скачать торрент  

Цитата:

они понимают, что нанесли на остров древнее зло

piratbit.pw



    Дорогой пользователь! Огромная просьба, поблагодарите релизера, оцените раздачу и оставьте свои комментарий, если Вы скачали Остров монстров через торрент бесплатно! Внесите свою лепту в развитие PiratBit!
    Комментировать посты могут только пользователи прошедшие не сложную регистрацию
    Показать сообщения:    

    Остров монстров через торрент
    Скачать бесплатно Остров монстров
    Остров монстров скачать торрент
    Остров монстров смотреть онлайн
    Cкачать фильм Остров монстров бесплатно
    Остров монстров скачать торрент в хорошем качестве
    Остров монстров смотреть онлайн бесплатно в хорошем качестве


    Вы не можете начинать темы
    Вы не можете отвечать на сообщения
    Вы не можете редактировать свои сообщения
    Вы не можете удалять свои сообщения
    Вы не можете голосовать в опросах
    Вы не можете прикреплять файлы к сообщениям
    Вы можете скачивать файлы