1 сезон

1 сезон

iTunes

1

КиноПоиск HD

Кинопоиск HD

iTunes

13

1 сезон

RePack

30

Новинка

ВАЖНО

ИГРА 18+

pack

RePack

MK11
pack

Легкие деньги

RePack

jed

RePack

fifa19

RePack

RDR2

RePack

NEED FOR SPEED™ PAYBACK

4 сезон

9 сезон

Бесстыжие 9 сезон

Все сериалы

все сериалы на PB.wtf

RePack

FAR CRY 5
  
Magnet ссылка

Бэзил / Basil (Рада Бхарадвадж) [1998, Драма, мелодрама, WEB-DL 1080p] AVO [А.Гаврилов] piratbit.pw

Бэзил через торрент piratbit.pw

Размер: 7.14 GB | Добавлен: 1 год 5 мес. назад | Торрент скачан:2 раза
Скачать  

17-11-2019 20:15 Бэзил Скачать торрент  

Бэзил / Basil
Год выпуска: 1998
Страна: Великобритания
Жанр: Драма, мелодрама
Продолжительность: 01:42:19
Перевод: Авторский (одноголосый) | Андрей Гаврилов
Субтитры: Английские

Режиссер: Рада Бхарадвадж

rating

В ролях: Кристиан Слэйтер, Джаред Лето, Клер Форлани, Дерек Джекоби, Дэвид Росс, Криспин Бонем-Картер, Стефани Багшоу, Мэйси Томлинсон, Дженни Даунхэм, Энн Луиз Гримшоу

Описание: Экранизация романа Уилки Коллинза Basil / «Тайный брак». Бэзил — открытый и неопытный еще человек из высшего общества страстно влюблен в прекрасную Джулию Шервин. И именно в этот момент ему предстоит познать горечь предательства. Бэзил обнаруживает, что стал жертвой зловещего плана мести. Он выслеживает своего мучителя и в жестокой схватке решает свою судьбу.

Качество: WEB-DL 1080p
Формат: MKV

Видео: MPEG-4 AVC, 9383 Кбит/с, 1920x1080, 24.000 fps
Аудио#1: Russian: AC3, 2 ch, 384 Кбит/с - AVO, А. Гаврилов
Аудио#2: English: E-AC3, 2 ch, 224 Кбит/с - Оригинал
скриншот  скриншот  скриншот  скриншот  скриншот  

General
Unique ID : 67839663202847186823290780476757826353 (0x330971A1FC423A33390A0B88F280DB31)
Complete name : Basil.1998.AMZN.WEB-DL.1080p.mkv
Format : Matroska
Format version : Version 4 / Version 2
File size : 7.14 GiB
Duration : 1 h 42 min
Overall bit rate : 9 993 kb/s
Encoded date : UTC 2019-11-17 12:18:21
Writing application : mkvmerge v20.0.0 ('I Am The Sun') 64-bit
Writing library : libebml v1.3.5 + libmatroska v1.4.8

Video
ID : 1
Format : AVC
Format/Info : Advanced Video Codec
Format profile : High@L4
Format settings : CABAC / 4 Ref Frames
Format settings, CABAC : Yes
Format settings, RefFrames : 4 frames
Codec ID : V_MPEG4/ISO/AVC
Duration : 1 h 42 min
Bit rate mode : Constant
Bit rate : 9 383 kb/s
Nominal bit rate : 10 000 kb/s
Width : 1 920 pixels
Height : 1 080 pixels
Display aspect ratio : 16:9
Frame rate mode : Constant
Frame rate : 24.000 FPS
Color space : YUV
Chroma subsampling : 4:2:0
Bit depth : 8 bits
Scan type : Progressive
Bits/(Pixel*Frame) : 0.189
Stream size : 6.71 GiB (94%)
Language : English
Default : Yes
Forced : No
Color range : Limited
Color primaries : BT.709
Transfer characteristics : BT.709
Matrix coefficients : BT.709

Audio #1
ID : 2
Format : AC-3
Format/Info : Audio Coding 3
Codec ID : A_AC3
Duration : 1 h 42 min
Bit rate mode : Constant
Bit rate : 384 kb/s
Channel(s) : 2 channels
Channel positions : Front: L R
Sampling rate : 48.0 kHz
Frame rate : 31.250 FPS (1536 SPF)
Bit depth : 16 bits
Compression mode : Lossy
Stream size : 281 MiB (4%)
Title : AVO, Gavrilov
Language : Russian
Service kind : Complete Main
Default : Yes
Forced : No

Audio #2
ID : 3
Format : E-AC-3
Format/Info : Enhanced Audio Coding 3
Codec ID : A_EAC3
Duration : 1 h 42 min
Bit rate mode : Constant
Bit rate : 224 kb/s
Channel(s) : 2 channels
Channel positions : Front: L R
Sampling rate : 48.0 kHz
Frame rate : 187.500 FPS (256 SPF)
Compression mode : Lossy
Stream size : 164 MiB (2%)
Language : English
Service kind : Complete Main
Default : No
Forced : No

Text
ID : 4
Format : UTF-8
Codec ID : S_TEXT/UTF8
Codec ID/Info : UTF-8 Plain Text
Duration : 1 h 42 min
Bit rate : 47 b/s
Count of elements : 1185
Stream size : 35.2 KiB (0%)
Language : English
Default : No
Forced : No

piratbit.pw



Скачать Бэзил через торрент https://i6.imageban.ru/out/2019/11/17/77f119f33fee49da704f4ee3eb550788.png Скачать фильм Бэзил через торрент бесплантно в хорошем качестве Описание: Экранизация романа Уилки Коллинза Basil / «Тайный брак». Бэзил — открытый и неопытный еще человек из высшего общества страстно ... 10 10 2
Торрент: Зарегистрирован [2019-11-17 20:15] · скачан: 2 раз
Статус: √ проверено
Размер: 7.14 GB
Как cкачать? Как скачать Бэзил через торрент | UTorrent

28-11-2019 20:33  

Отключить всю рекламу на сайте

    Дорогой пользователь! Огромная просьба, поблагодарите релизера, оцените раздачу и оставьте свои комментарий, если Вы скачали Бэзил через торрент бесплатно! Внесите свою лепту в развитие PiratBit!
    Комментировать посты могут только пользователи прошедшие не сложную регистрацию
    Показать сообщения:    

    Бэзил через торрент
    Скачать бесплатно Бэзил
    Бэзил скачать торрент
    Бэзил смотреть онлайн
    Cкачать фильм Бэзил бесплатно
    Бэзил скачать торрент в хорошем качестве
    Бэзил смотреть онлайн бесплатно в хорошем качестве


    Вы не можете начинать темы
    Вы не можете отвечать на сообщения
    Вы не можете редактировать свои сообщения
    Вы не можете удалять свои сообщения
    Вы не можете голосовать в опросах
    Вы не можете прикреплять файлы к сообщениям
    Вы можете скачивать файлы