Ссылка на приватное зеркало нашего сайта всего за 1$. Внимание количество ограничено!!!

2 сезон

iTunes

1 сезон

1

iTunes

iTunes

iTunes

1 сезон

RePack

30

ИГРА 18+

pack

ВАЖНО

!!Акция!!

Alien_RageХит недели

RePack

MK11
pack

Забери бонус

RePack

jed

!!Акция!!

Alien_Rage

RePack

fifa19

RePack

Assassins Creed: Odyssey

RePack

NEED FOR SPEED™ PAYBACK

4 сезон

9 сезон

Бесстыжие 9 сезон

Все сериалы

все сериалы на PB.wtf

RePack

FAR CRY 5
  

Да здравствует Лас-Вегас / Viva Las Vegas (Джордж Сидни) [1964, комедия, мюзикл, BDRip 720p by msltel] MVO, DVO piratbit.pw

Да здравствует Лас-Вегас через торрент piratbit.pw

Размер: 2.79 GB | Добавлен: 11 мес. назад | Торрент скачан:1 раз
Скачать  

16-11-2019 12:58 Да здравствует Лас-Вегас Скачать торрент  

Название: Да здравствует Лас-Вегас
Оригинальное название: Viva Las Vegas
Год выпуска: 1964
Страна: США
Жанр: комедия, мюзикл
Продолжительность: 01:24:54
Перевод: профессиональный многоголосый, профессиональный двухголосый

Режиссер: Джордж Сидни
В ролях: Элвис Пресли, Энн-Маргрет, Чезаре Данова, Уильям Демарест, Никки Блэр

О фильме: В преддверии соревнований по автогонкам «Гран-при» Лакки Джексон едет в Лас-Вегас с целью заработать денег на новый двигатель для своего автомобиля. Прибыв в город развлечений, он устраивается работать официантом и совсем скоро влюбляется в одну из постоянных посетительниц ресторана, местную красавицу Русти Мартин. В надежде покорить её Лакки решает прибегнуть к исполнительству песен и музыке...



Качество: BDRip 720p
Формат: MKV
Видео: MPEG-4 AVC, 3813 Кбит/с, 1280x538
Аудио 1: русский, AC3, 256 kbps, 2 ch, 48 kHz [закадровый многоголосый, CTC]
Аудио 2: русский, AC3, 192 kbps, 2 ch, 48 kHz [закадровый двухголосый, Мастер Тейп]
Аудио 3: английский, AC3, 448 kbps, 6 ch, 48 kHz [оригинал]
Субтитры 1: русские (тексты песен)
Субтитры 2: английские
Главы/чаптеры
Общее
Уникальный идентификатор : 219450986914648923059444080156691501470 (0xA518B90306B1C1C9A4E959D04E51919E)
Полное имя : D:\Video\Да здравствует Лас-Вегас.1964.BDRip 720p by msltel.mkv
Формат : Matroska
Версия формата : Version 4
Размер файла : 2,79 Гбайт
Продолжительность : 1 ч. 24 м.
Общий поток : 4711 Кбит/сек
Название фильма : Rip by msltel
Дата кодирования : UTC 2019-11-16 12:24:20
Программа кодирования : mkvmerge v8.2.0 ('World of Adventure') 64bit
Библиотека кодирования : libebml v1.3.1 + libmatroska v1.4.2

Видео
Идентификатор : 1
Формат : AVC
Формат/Информация : Advanced Video Codec
Профиль формата : High@L4.1
Настройки формата : CABAC / 9 Ref Frames
Параметр CABAC формата : Да
Параметр RefFrames формата : 9 кадров
Идентификатор кодека : V_MPEG4/ISO/AVC
Продолжительность : 1 ч. 24 м.
Битрейт : 3813 Кбит/сек
Ширина : 1280 пикселей
Высота : 536 пикселей
Соотношение сторон : 2,40:1
Режим частоты кадров : Постоянный
Частота кадров : 23,976 (24000/1001) кадра/сек
Цветовое пространство : YUV
Субдискретизация насыщенности : 4:2:0
Битовая глубина : 8 бит
Тип развёртки : Прогрессивная
Бит/(Пиксели*Кадры) : 0.232
Размер потока : 2,26 Гбайт (81%)
Библиотека кодирования : x264 core 157 r2935 545de2f
Настройки программы : cabac=1 / ref=9 / deblock=1:-2:-2 / analyse=0x3:0x113 / me=umh / subme=11 / psy=1 / psy_rd=1.00:0.15 / mixed_ref=1 / me_range=32 / chroma_me=1 / trellis=2 / 8x8dct=1 / cqm=0 / deadzone=21,11 / fast_pskip=0 / chroma_qp_offset=-3 / threads=6 / lookahead_threads=1 / sliced_threads=0 / nr=0 / decimate=1 / interlaced=0 / bluray_compat=0 / constrained_intra=0 / bframes=7 / b_pyramid=2 / b_adapt=2 / b_bias=0 / direct=1 / weightb=1 / open_gop=0 / weightp=2 / keyint=230 / keyint_min=23 / scenecut=40 / intra_refresh=0 / rc_lookahead=40 / rc=crf / mbtree=1 / crf=19.5 / qcomp=0.60 / qpmin=0 / qpmax=69 / qpstep=4 / vbv_maxrate=50000 / vbv_bufsize=62500 / crf_max=0.0 / nal_hrd=none / filler=0 / ip_ratio=1.40 / aq=1:1.00
Язык : English
Default : Да
Forced : Нет

Аудио #1
Идентификатор : 2
Формат : AC-3
Формат/Информация : Audio Coding 3
Коммерческое название : Dolby Digital
Идентификатор кодека : A_AC3
Продолжительность : 1 ч. 24 м.
Вид битрейта : Постоянный
Битрейт : 256 Кбит/сек
Каналы : 2 канала
ChannelLayout : L R
Частота : 48,0 КГц
Частота кадров : 31,250 кадров/сек (1536 SPF)
Метод сжатия : С потерями
Размер потока : 155 Мбайт (5%)
Заголовок : MVO CTC
Язык : Russian
ServiceKind/String : Complete Main
Default : Да
Forced : Нет

Аудио #2
Идентификатор : 3
Формат : AC-3
Формат/Информация : Audio Coding 3
Коммерческое название : Dolby Digital
Идентификатор кодека : A_AC3
Продолжительность : 1 ч. 24 м.
Вид битрейта : Постоянный
Битрейт : 192 Кбит/сек
Каналы : 2 канала
ChannelLayout : L R
Частота : 48,0 КГц
Частота кадров : 31,250 кадров/сек (1536 SPF)
Метод сжатия : С потерями
Размер потока : 117 Мбайт (4%)
Заголовок : DVO Мастер Тейп
Язык : Russian
ServiceKind/String : Complete Main
Default : Нет
Forced : Нет

Аудио #3
Идентификатор : 4
Формат : AC-3
Формат/Информация : Audio Coding 3
Коммерческое название : Dolby Digital
Идентификатор кодека : A_AC3
Продолжительность : 1 ч. 24 м.
Вид битрейта : Постоянный
Битрейт : 448 Кбит/сек
Каналы : 6 каналов
ChannelLayout : L R C LFE Ls Rs
Частота : 48,0 КГц
Частота кадров : 31,250 кадров/сек (1536 SPF)
Метод сжатия : С потерями
Размер потока : 272 Мбайт (10%)
Заголовок : original
Язык : English
ServiceKind/String : Complete Main
Default : Нет
Forced : Нет

Текст #1
Идентификатор : 5
Формат : UTF-8
Идентификатор кодека : S_TEXT/UTF8
Идентификатор кодека/Информация : UTF-8 Plain Text
Продолжительность : 58 м. 0 с.
Битрейт : 25 бит/сек
ElementCount : 138
Размер потока : 10,9 Кбайт (0%)
Заголовок : русские тексты песен
Язык : Russian
Default : Нет
Forced : Нет

Текст #2
Идентификатор : 6
Формат : UTF-8
Идентификатор кодека : S_TEXT/UTF8
Идентификатор кодека/Информация : UTF-8 Plain Text
Продолжительность : 1 ч. 21 м.
Битрейт : 49 бит/сек
ElementCount : 826
Размер потока : 29,5 Кбайт (0%)
Заголовок : английские
Язык : English
Default : Нет
Forced : Нет

Меню
00:00:00.000 : en:00:00:00.000
00:02:19.139 : en:00:02:19.139
00:06:22.841 : en:00:06:22.841
00:09:51.382 : en:00:09:51.382
00:14:01.466 : en:00:14:01.466
00:16:00.418 : en:00:16:00.418
00:22:51.996 : en:00:22:51.996
00:25:40.456 : en:00:25:40.456
00:29:41.196 : en:00:29:41.196
00:35:48.897 : en:00:35:48.897
00:37:26.035 : en:00:37:26.035
00:39:08.596 : en:00:39:08.596
00:41:56.973 : en:00:41:56.973
00:46:41.716 : en:00:46:41.716
00:52:34.568 : en:00:52:34.568
00:55:03.884 : en:00:55:03.884
00:59:49.961 : en:00:59:49.961
01:02:41.091 : en:01:02:41.091
01:05:17.789 : en:01:05:17.789
01:08:25.393 : en:01:08:25.393
01:10:49.662 : en:01:10:49.662
01:13:28.404 : en:01:13:28.404
01:17:11.377 : en:01:17:11.377
01:21:49.446 : en:01:21:49.446
piratbit.pw



Скачать Да здравствует Лас-Вегас через торрент https://b.radikal.ru/b15/1911/2e/9a1dfbc4dcef.jpg Скачать фильм Да здравствует Лас-Вегас через торрент бесплантно в хорошем качестве О фильме: В преддверии соревнований по автогонкам «Гран-при» Лакки Джексон едет в Лас-Вегас с целью заработать денег на новый двигатель для ... 5 10 1
Info! Золотая раздача, скачанное не засчитывается.
Торрент: Зарегистрирован [2019-11-16 12:58] · скачан: 1 раз
Статус: √ проверено
Размер: 2.79 GB
Как cкачать? Как скачать Да здравствует Лас-Вегас через торрент | qTorrent

% Раздел Тема Автор DL S | L
Классика зарубежного кино [ 7.6 GB ] Да здравствует Лас-Вегас / Viva Las Vegas [1964 мюзикл BDRip 1080p by msltel] MVO DVO msltel Скачать
1 | 0
Классика зарубежного кино [ 1.79 GB ] Да здравствует Лас-Вегас / Viva Las Vegas [1964 мюзикл BDRip by msltel] MVO DVO msltel Скачать
1 | 0

28-11-2019 20:33  

Отключить всю рекламу на сайте

    Дорогой пользователь! Огромная просьба, поблагодарите релизера, оцените раздачу и оставьте свои комментарий, если Вы скачали Да здравствует Лас-Вегас через торрент бесплатно! Внесите свою лепту в развитие PiratBit!
    Комментировать посты могут только пользователи прошедшие не сложную регистрацию
    Показать сообщения:    

    Да здравствует Лас-Вегас через торрент
    Скачать бесплатно Да здравствует Лас-Вегас
    Да здравствует Лас-Вегас скачать торрент
    Да здравствует Лас-Вегас смотреть онлайн
    Cкачать фильм Да здравствует Лас-Вегас бесплатно
    Да здравствует Лас-Вегас скачать торрент в хорошем качестве
    Да здравствует Лас-Вегас смотреть онлайн бесплатно в хорошем качестве


    Вы не можете начинать темы
    Вы не можете отвечать на сообщения
    Вы не можете редактировать свои сообщения
    Вы не можете удалять свои сообщения
    Вы не можете голосовать в опросах
    Вы не можете прикреплять файлы к сообщениям
    Вы можете скачивать файлы