Ссылка на приватное зеркало всего за 1$. Внимание количество ограничено!!!

iTunes

iTunes

iTunes

1

iTunes

iTunes

iTunes

iTunes

iTunes

30
pack

$ от Little Big

ВАЖНО

!!Акция!!

Alien_RageХит недели

RePack

Resident Evil 21

ИГРА 18+

pack

RePack

jed

!!Акция!!

Alien_Rage

RePack

fifa19

RePack

Assassins Creed: Odyssey

RePack

NEED FOR SPEED™ PAYBACK

4 сезон

9 сезон

Бесстыжие 9 сезон

Все сериалы

все сериалы на PB.wtf

RePack

FAR CRY 5
  

Девятая (Николай Хомерики) [2019, триллер, приключения, детектив, ужасы, WEB-DL 1080p] [iTunes] piratbit.pw

Девятая через торрент piratbit.pw

Раздают: 2 [ 0 KB/s ]
Размер: 3.23 GB | Добавлен: 6 мес. назад | Торрент скачан:745 раз
Скачать  

15-11-2019 08:46 Девятая Скачать торрент  

Девятая
Год выпуска: 2019
Страна: Россия
Жанр: триллер, приключения, детектив, ужасы
Продолжительность: 01:34:45
Перевод: Не требуется | iTunes
Субтитры: отсутствуют

Режиссер: Николай Хомерики

rating

В ролях: Евгений Цыганов, Дэйзи Хэд, Дмитрий Лысенков, Джонатан Солвей, Юрий Колокольников, Евгений Ткачук, Игорь Черневич, Иван Решетняк, Мария Скуратова, Анна Христич

Описание: Петербург конца XIX века охвачен массовым увлечением оккультными науками и эзотерикой. Британка-медиум Оливия Рид приезжает в столицу Российской империи с гастролями и собирает на своих публичных спиритических сеансах толпы людей. В это время в городе происходит серия ритуальных загадочных убийств. На улицах похищают девушек, их изувеченные тела находят в самых разных концах города. Расследованием занимаются молодой полицейский офицер Ростов и его помощник Ганин. С каждой новой жертвой дело становится все запутаннее. Подозрение приводит Ростова к Оливии, и он решает обратиться к ней в надежде, что ее подлинная или мнимая способность вызывать духов погибших может помочь выйти на след убийцы.

Качество: WEB-DL 1080p
Формат: MKV

Видео: MPEG-4 AVC, 1920x806, 25.000 fps, 4401 Kbps
Аудио: Russian: 48.0 KHz, AC3, 6 ch, 384 kbps - iTunes
скриншот  скриншот  скриншот  скриншот  скриншот  

General
Unique ID : 230250370035098208996085850687129976371 (0xAD389BB55571D32489C4AC7ABB2AFE33)
Complete name : 9_2019_WEB-DL_1080p-BLUEBIRD.mkv
Format : Matroska
Format version : Version 4 / Version 2
File size : 3.23 GiB
Duration : 1 h 34 min
Overall bit rate : 4 882 kb/s
Encoded date : UTC 2019-12-31 19:39:57
Writing application : mkvmerge v6.9.1 ('Blue Panther') 32bit built on Apr 18 2014 18:15:44
Writing library : libebml v1.3.0 + libmatroska v1.4.1
Cover : Yes
Attachments : cover4.png

Video
ID : 1
Format : AVC
Format/Info : Advanced Video Codec
Format profile : High@L4
Format settings, CABAC : Yes
Format settings, RefFrames : 5 frames
Codec ID : V_MPEG4/ISO/AVC
Duration : 1 h 34 min
Bit rate : 4 401 kb/s
Width : 1 920 pixels
Height : 806 pixels
Display aspect ratio : 2.40:1
Frame rate mode : Constant
Frame rate : 25.000 FPS
Color space : YUV
Chroma subsampling : 4:2:0
Bit depth : 8 bits
Scan type : Progressive
Bits/(Pixel*Frame) : 0.114
Stream size : 2.91 GiB (90%)
Language : English
Default : Yes
Forced : No
Color range : Limited
Color primaries : BT.709
Transfer characteristics : BT.709
Matrix coefficients : BT.709

Audio
ID : 2
Format : AC-3
Format/Info : Audio Coding 3
Format settings, Endianness : Big
Codec ID : A_AC3
Duration : 1 h 34 min
Bit rate mode : Constant
Bit rate : 384 kb/s
Channel(s) : 6 channels
Channel positions : Front: L C R, Side: L R, LFE
Sampling rate : 48.0 kHz
Frame rate : 31.250 FPS (1536 SPF)
Bit depth : 16 bits
Compression mode : Lossy
Stream size : 260 MiB (8%)
Title : [ORIGINAL] DD 5.1 @ 384 kbps (iTunes)
Language : Russian
Service kind : Complete Main
Default : Yes
Forced : No

Menu
00:00:00.000 : en:Глава 1
00:08:02.920 : en:Глава 2
00:16:12.120 : en:Глава 3
00:24:18.640 : en:Глава 4
00:32:36.680 : en:Глава 5
00:40:41.040 : en:Глава 6
00:48:47.960 : en:Глава 7
00:56:49.120 : en:Глава 8
01:05:09.040 : en:Глава 9
01:13:13.240 : en:Глава 10
01:21:17.240 : en:Глава 11

piratbit.pw



Скачать Девятая через торрент https://i3.imageban.ru/out/2020/01/01/88c0484f4a0a1a7ac31a3a7a8139bb2a.png Скачать фильм Девятая через торрент бесплантно в хорошем качестве Описание: Петербург конца XIX века охвачен массовым увлечением оккультными науками и эзотерикой. Британка-медиум Оливия Рид приезжает в ... 10 10 25
Торрент: Зарегистрирован [2020-01-01 05:28] · скачан: 745 раз
Статус: √ проверено
Размер: 3.23 GB
Как cкачать? Как скачать Девятая через торрент | qTorrent

% Раздел Тема Автор DL S | L
Наши новые фильмы 2018-2019 [ 745 MB ] Девятая [2019 WEB-DLRip] bober100 Скачать
2 | 0
Наши фильмы (HD, WEB-DL 720p, 1080p) [ 2.84 GB ] Девятая [2019 WEB-DL 720p] bober100 Скачать
6 | 0
Наши новые фильмы 2018-2019 [ 1.37 GB ] Девятая [2019 WEB-DLRip] bober100 Скачать
4 | 0
Фильмы с авторской озвучкой [ 1.49 GB ] Девятая конфигурация / The Ninth Configuration [1980 HDRip] [AVO] killermax2013 Скачать
1 | 0
T Фильмы (мультфильмы) cо спонсором показа (Новинки AVI/MKV) [ 4.21 GB ] Сила девяти Богов / The Legend of Muay Thai: 9 Satra [2018 мультфильм WEB-DL 720p] DUB [Line] bober100 Скачать
1 | 0
T Фильмы (мультфильмы) cо спонсором показа (Новинки AVI/MKV) [ 1.37 GB ] Сила девяти Богов / The Legend of Muay Thai: 9 Satra [2018 мультфильм WEB-DLRip] DUB [Line] bober100 Скачать
1 | 0
Приключения, Квесты, Логические [ 1.02 GB ] Сага о Девяти Мирах 3: Охота. Коллекционное издание / Saga of the Nine Worlds 3: The Hunt [Пиратка RUS] Легендариус Скачать
2 | 0

28-11-2019 20:33  

Отключить всю рекламу на сайте

03-01-2020 15:14 Девятая Скачать торрент  

неплохой фильм.зря так на сайтах на него накинулись в обсуждениях.посмотрел с удовольствием.на вечерок у телевизора самое то.piratbit.pw



    Дорогой пользователь! Огромная просьба, поблагодарите релизера, оцените раздачу и оставьте свои комментарий, если Вы скачали Девятая через торрент бесплатно! Внесите свою лепту в развитие PiratBit!
    Комментировать посты могут только пользователи прошедшие не сложную регистрацию
    Показать сообщения:    

    Девятая через торрент
    Скачать бесплатно Девятая
    Девятая скачать торрент
    Девятая смотреть онлайн
    Cкачать фильм Девятая бесплатно
    Девятая скачать торрент в хорошем качестве
    Девятая смотреть онлайн бесплатно в хорошем качестве


    Вы не можете начинать темы
    Вы не можете отвечать на сообщения
    Вы не можете редактировать свои сообщения
    Вы не можете удалять свои сообщения
    Вы не можете голосовать в опросах
    Вы не можете прикреплять файлы к сообщениям
    Вы можете скачивать файлы