Marvel's Avengers Deluxe Edition (супер цена) 159р. Внимание количество ограничено!!!

2 сезон

iTunes

iTunes

1

iTunes

iTunes

iTunes

WEBRip

iTunes

30
pack

Новость дня

ВАЖНО

!!Акция!!

Alien_RageХит недели

RePack

Horizon Zero Dawn

ИГРА 18+

pack

RePack

jed

!!Акция!!

Alien_Rage

RePack

fifa19

RePack

Assassins Creed: Odyssey

RePack

NEED FOR SPEED™ PAYBACK

4 сезон

9 сезон

Бесстыжие 9 сезон

Все сериалы

все сериалы на PB.wtf

RePack

FAR CRY 5
  

Русское краткое. Выпуск 2 (Александр Домогаров мл., Ирина Вилкова, Ира Волкова) [2019, комедия, драма, ужасы, WEB-DL 1080p] [iTunes] piratbit.pw

Русское краткое. Выпуск 2 через торрент piratbit.pw

Размер: 3.85 GB | Добавлен: 10 мес. назад | Торрент скачан:116 раз
Скачать  

14-11-2019 19:24 Русское краткое. Выпуск 2 Скачать торрент  

Русское краткое. Выпуск 2
Год выпуска: 2019
Страна: Россия
Жанр: комедия, драма, ужасы
Продолжительность: 01:38:05
Перевод: Не требуется | iTunes
Субтитры: отсутствуют

Режиссер: Александр Домогаров мл., Ирина Вилкова, Ира Волкова



В ролях: Татьяна Кузнецова, Александр Ильин мл., Энтони Бэшоу, Ирина Вилкова, Алексей Ильин, Даниил Воробьёв, Лукерья Ильяшенко, Сергей Кемпо, Павел Трубинер, Елена Нестерова

Описание: «Русское краткое. Выпуск 2» — это пять необычных коротких историй от российских режиссеров. Хоррор о мистической школе «Пустите детей», эротический триллер «Серёжка», черная комедия «Грибы и рыбы» про лесную прогулку двух приятелей, остроумная киноновелла «Чё» о спонтанной поездке в Санкт-Петербург и постновогодняя история о поиске пропавшего парня по имени Костик.

Качество: WEB-DL 1080p
Формат: MKV

Видео: х264, 5228 Kb/s, 1920x1080
Аудио: 48 kHz, AC3 Dolby Digital, 3/2 (L,C,R,l,r) + LFE ch, ~384 kbps
скриншот  скриншот  скриншот  скриншот  

Общее
Уникальный идентификатор: 212981691120506889697301934983322328308 (0xA03AC81A71F89FCB9C0B83A31514DCF4)
Полное имя: Russkoe.kratkoe.2.2018.WEB-DL.1080p.ELEKTRI4KA.UNIONGANG.mkv
Формат: Matroska
Версия формата: Version 4
Размер файла: 3,85 Гбайт
Продолжительность: 1 ч. 38 м.
Общий поток: 5614 Кбит/сек
Дата кодирования: UTC 2019-11-13 21:19:38
Программа кодирования: mkvmerge v8.3.0 ('Over the Horizon') 64bit
Библиотека кодирования: libebml v1.3.1 + libmatroska v1.4.2

Видео
Идентификатор: 1
Формат: AVC
Формат/Информация: Advanced Video Codec
Профиль формата: High@L4
Настройки формата: CABAC / 4 Ref Frames
Параметр CABAC формата: Да
Параметр RefFrames формата: 4 кадра
Идентификатор кодека: V_MPEG4/ISO/AVC
Продолжительность: 1 ч. 38 м.
Битрейт: 5228 Кбит/сек
Ширина: 1920 пикселей
Высота: 1080 пикселей
Соотношение сторон: 16:9
Режим частоты кадров: Постоянный
Частота кадров: 24,000 кадра/сек
Цветовое пространство: YUV
Субдискретизация насыщенности: 4:2:0
Битовая глубина: 8 бит
Тип развёртки: Прогрессивная
Бит/(Пиксели*Кадры): 0.105
Размер потока: 3,58 Гбайт (93%)
Заголовок: ELEKTRI4KA.UNIONGANG
Язык: English
Default: Да
Forced: Нет
Цветовой диапазон: Limited
Основные цвета: BT.709
Характеристики трансфера: BT.709
Коэффициенты матрицы: BT.709

Аудио
Идентификатор: 2
Формат: AC-3
Формат/Информация: Audio Coding 3
Коммерческое название: Dolby Digital
Идентификатор кодека: A_AC3
Продолжительность: 1 ч. 38 м.
Вид битрейта: Постоянный
Битрейт: 384 Кбит/сек
Каналы: 6 каналов
Channel layout: L R C LFE Ls Rs
Частота: 48,0 КГц
Частота кадров: 31,250 кадров/сек (1536 SPF)
Битовая глубина: 16 бит
Метод сжатия: С потерями
Размер потока: 269 Мбайт (7%)
Заголовок: iTunes (ELEKTRI4KA.UNIONGANG)
Язык: Russian
ServiceKind/String: Complete Main
Default: Да
Forced: Нет

Меню
00:00:00.000: en:Глава 1
00:08:50.875: en:Глава 2
00:15:16.000: en:Глава 3
00:23:31.166: en:Глава 4
00:29:26.916: en:Глава 5
00:37:13.999: en:Глава 6
00:44:22.040: en:Глава 7
00:52:14.290: en:Глава 8
00:58:40.331: en:Глава 9
01:07:58.622: en:Глава 10
01:14:36.705: en:Глава 11
01:20:02.496: en:Глава 12
01:24:50.162: en:Глава 13
01:29:45.370: en:Глава 14

piratbit.pw



Скачать Русское краткое. Выпуск 2 через торрент https://i1.imageban.ru/out/2019/11/14/2cd3f7c77cb2a2438a102c05e5e9fba8.png Скачать фильм Русское краткое. Выпуск 2 через торрент бесплантно в хорошем качестве Описание: «Русское краткое. Выпуск 2» — это пять необычных коротких историй от российских режиссеров. Хоррор о мистической школе «Пустите ... 10 10 4
Торрент: Зарегистрирован [2019-11-14 19:24] · скачан: 116 раз
Статус: √ проверено
Размер: 3.85 GB
Как cкачать? Как скачать Русское краткое. Выпуск 2 через торрент | qTorrent

28-11-2019 20:33  

Отключить всю рекламу на сайте

    Дорогой пользователь! Огромная просьба, поблагодарите релизера, оцените раздачу и оставьте свои комментарий, если Вы скачали Русское краткое. Выпуск 2 через торрент бесплатно! Внесите свою лепту в развитие PiratBit!
    Комментировать посты могут только пользователи прошедшие не сложную регистрацию
    Показать сообщения:    

    Русское краткое. Выпуск 2 через торрент
    Скачать бесплатно Русское краткое. Выпуск 2
    Русское краткое. Выпуск 2 скачать торрент
    Русское краткое. Выпуск 2 смотреть онлайн
    Cкачать фильм Русское краткое. Выпуск 2 бесплатно
    Русское краткое. Выпуск 2 скачать торрент в хорошем качестве
    Русское краткое. Выпуск 2 смотреть онлайн бесплатно в хорошем качестве


    Вы не можете начинать темы
    Вы не можете отвечать на сообщения
    Вы не можете редактировать свои сообщения
    Вы не можете удалять свои сообщения
    Вы не можете голосовать в опросах
    Вы не можете прикреплять файлы к сообщениям
    Вы можете скачивать файлы