Marvel's Avengers Deluxe Edition (супер цена) 159р. Внимание количество ограничено!!!

2 сезон

iTunes

iTunes

1

iTunes

iTunes

iTunes

WEBRip

iTunes

30
pack

Новость дня

ВАЖНО

!!Акция!!

Alien_RageХит недели

RePack

Horizon Zero Dawn

ИГРА 18+

pack

RePack

jed

!!Акция!!

Alien_Rage

RePack

fifa19

RePack

Assassins Creed: Odyssey

RePack

NEED FOR SPEED™ PAYBACK

4 сезон

9 сезон

Бесстыжие 9 сезон

Все сериалы

все сериалы на PB.wtf

RePack

FAR CRY 5
  

Angry Birds 2 в кино / The Angry Birds Movie 2 (Туроп Ван Орман, Джон Райс) [2019, мультфильм, комедия, приключения, UHD BDRip 2160p] DUB (rus, ukr) [iTunes] piratbit.pw

Angry Birds 2 в кино через торрент piratbit.pw

Раздают: 1 [ 0 KB/s ]
Размер: 9.87 GB | Добавлен: 10 мес. назад | Торрент скачан:199 раз
Скачать  

13-11-2019 13:46 Angry Birds 2 в кино Скачать торрент  

Angry Birds 2 в кино / The Angry Birds Movie 2««Заклятые друзья?»»

Год выпуска: 2019
Страна: США, Финляндия
Жанр: мультфильм, комедия, приключения, семейный
Продолжительность: 01:36:47
Перевод: Дублированный [iTunes]
Субтитры: Русские (форсированные, полные), украинские, английские (полные, SDH)

Режиссер: Туроп Ван Орман, Джон Райс
В ролях:

Джейсон Судейкис (Red, озвучка), Джош Гад (Chuck, озвучка), Лесли Джонс (Zeta, озвучка), Билл Хейдер (Leonard, озвучка), Рэйчел Блум (Silver, озвучка), Аквафина (Courtney, озвучка), Стерлинг К. Браун (Garry, озвучка), Эухенио Дербес (Glenn, озвучка), Тиффани Хэддиш (Debbie, озвучка), Дэнни Макбрайд (Bomb, озвучка), Питер Динклэйдж (Mighty Eagle, озвучка), Пит Дэвидсон (Jerry, озвучка)
Описание:
Птицы узнали о существовании голодных зелёных свиней, после чего началась священная война, которая длилась многие годы. Однако теперь на горизонте появился новый враг - Зета, обитательница третьего, замёрзшего острова. Она считает, что все должны почувствовать на себе силу холода, и начинает атаку на дальних родственников, обитающих в тёплых краях. Теперь птицы и свиньи должны объединиться, чтобы остановить заморозки.
Рейтинг:

MPAA: PG - Рекомендуется присутствие родителей
Качество: UHD BDRip 2160p
Формат: MKV
Видео: HEVC HDR, 13.4 Мбит/с, 3840x2076, 23.976 кадр/с, 10 Бит
Аудио: 48 kHz, AC3, 5.1, 384 Kbps | iTunes | RUS |
Аудио: 48 kHz, AC3, 2.0, 160 Kbps | iTunes | UKR |
Аудио: 48 kHz, AC3, 5.1, 640 Kbps | Оригинал | ENG |
Навигация по главам: есть

Общее
Уникальный идентификатор : 214687153674840067151309864496532476656 (0xA1833DE632343173951F9F28842ED2F0)
Полное имя : D:\Передел\The.Angry.Birds.Movie.2.2019.2160p.UHD.BDRip.HDR.x265.10bit.Master5.mkv
Формат : Matroska
Версия формата : Version 4
Размер файла : 9,87 Гбайт
Продолжительность : 1 ч. 36 м.
Общий поток : 14,6 Мбит/сек
Название фильма : The.Angry.Birds.Movie.2.2019.2160p.UHD.BDRip.HDR.x265.10bit.Master5
Дата кодирования : UTC 2019-11-13 12:07:54
Программа кодирования : mkvmerge v7.9.0 ('Birds') 64bit
Библиотека кодирования : libebml v1.3.1 + libmatroska v1.4.2
Обложка : Yes
Attachments : cover.jpg

Видео
Идентификатор : 1
Формат : HEVC
Формат/Информация : High Efficiency Video Coding
Коммерческое название : HDR10
Профиль формата : Main 10@L5.1@High
Идентификатор кодека : V_MPEGH/ISO/HEVC
Продолжительность : 1 ч. 36 м.
Битрейт : 13,4 Мбит/сек
Ширина : 3840 пикселей
Высота : 2076 пикселей
Соотношение сторон : 1,85:1
Режим частоты кадров : Постоянный
Частота кадров : 23,976 (24000/1001) кадра/сек
Цветовое пространство : YUV
Субдискретизация насыщенности : 4:2:0 (Type 2)
Битовая глубина : 10 бит
Бит/(Пиксели*Кадры) : 0.070
Размер потока : 9,07 Гбайт (92%)
Заголовок : The.Angry.Birds.Movie.2.2019.2160p.UHD.BDRip.HDR.x265.10bit.Master5
Библиотека кодирования : x265 3.2+6-f46aa2bc1c34:[Windows][GCC 9.2.0][64 bit] 10bit
Настройки программы : cpuid=1176575 / frame-threads=6 / numa-pools=36 / wpp / no-pmode / no-pme / no-psnr / no-ssim / log-level=2 / input-csp=1 / input-res=3840x2076 / interlace=0 / total-frames=139248 / level-idc=51 / high-tier=1 / uhd-bd=0 / ref=4 / no-allow-non-conformance / repeat-headers / annexb / aud / hrd / info / hash=0 / no-temporal-layers / no-open-gop / min-keyint=1 / keyint=24 / gop-lookahead=0 / bframes=4 / b-adapt=2 / b-pyramid / bframe-bias=0 / rc-lookahead=25 / lookahead-slices=4 / scenecut=40 / radl=0 / no-splice / no-intra-refresh / ctu=64 / min-cu-size=8 / rect / no-amp / max-tu-size=32 / tu-inter-depth=1 / tu-intra-depth=1 / limit-tu=0 / rdoq-level=2 / dynamic-rd=0.00 / no-ssim-rd / signhide / no-tskip / nr-intra=0 / nr-inter=0 / no-constrained-intra / no-strong-intra-smoothing / max-merge=3 / limit-refs=3 / limit-modes / me=3 / subme=3 / merange=57 / temporal-mvp / no-frame-dup / no-hme / weightp / no-weightb / no-analyze-src-pics / deblock=-3:-3 / no-sao / no-sao-non-deblock / rd=4 / selective-sao=0 / no-early-skip / rskip / no-fast-intra / no-tskip-fast / no-cu-lossless / no-b-intra / no-splitrd-skip / rdpenalty=0 / psy-rd=2.00 / psy-rdoq=1.00 / no-rd-refine / no-lossless / cbqpoffs=0 / crqpoffs=0 / rc=crf / crf=17.0 / qcomp=0.60 / qpstep=4 / stats-write=0 / stats-read=0 / vbv-maxrate=160000 / vbv-bufsize=160000 / vbv-init=0.9 / crf-max=0.0 / crf-min=0.0 / ipratio=1.40 / pbratio=1.30 / aq-mode=1 / aq-strength=1.00 / cutree / zone-count=0 / no-strict-cbr / qg-size=32 / no-rc-grain / qpmax=69 / qpmin=0 / no-const-vbv / sar=1 / overscan=0 / videoformat=5 / range=0 / colorprim=9 / transfer=16 / colormatrix=9 / chromaloc=1 / chromaloc-top=2 / chromaloc-bottom=2 / display-window=0 / master-display=G(13250,34500)B(7500,3000)R(34000,16000)WP(15635,16450)L(40000000,50) / cll=1001,640 / min-luma=0 / max-luma=1023 / log2-max-poc-lsb=8 / vui-timing-info / vui-hrd-info / slices=1 / no-opt-qp-pps / no-opt-ref-list-length-pps / no-multi-pass-opt-rps / scenecut-bias=0.05 / no-opt-cu-delta-qp / no-aq-motion / hdr / hdr-opt / no-dhdr10-opt / no-idr-recovery-sei / analysis-reuse-level=5 / scale-factor=0 / refine-intra=0 / refine-inter=0 / refine-mv=1 / refine-ctu-distortion=0 / no-limit-sao / ctu-info=0 / no-lowpass-dct / refine-analysis-type=0 / copy-pic=1 / max-ausize-factor=1.0 / no-dynamic-refine / no-single-sei / no-hevc-aq / no-svt / no-field / qp-adaptation-range=1.00
Default : Да
Forced : Нет
Цветовой диапазон : Limited
Основные цвета : BT.2020
Характеристики трансфера : PQ
Коэффициенты матрицы : BT.2020 non-constant
MasteringDisplay_ColorPrimaries : Display P3
MasteringDisplay_Luminance : min: 0.0050 cd/m2, max: 4000 cd/m2
MaxCLL : 1001 cd/m2
MaxFALL : 640 cd/m2

Аудио #1
Идентификатор : 2
Формат : AC-3
Формат/Информация : Audio Coding 3
Коммерческое название : Dolby Digital
Идентификатор кодека : A_AC3
Продолжительность : 1 ч. 36 м.
Вид битрейта : Постоянный
Битрейт : 384 Кбит/сек
Каналы : 6 каналов
Channel layout : L R C LFE Ls Rs
Частота : 48,0 КГц
Частота кадров : 31,250 кадров/сек (1536 SPF)
Битовая глубина : 16 бит
Метод сжатия : С потерями
Размер потока : 266 Мбайт (3%)
Заголовок : iTunes
Язык : Russian
ServiceKind/String : Complete Main
Default : Да
Forced : Да

Аудио #2
Идентификатор : 3
Формат : AC-3
Формат/Информация : Audio Coding 3
Коммерческое название : Dolby Digital
Идентификатор кодека : A_AC3
Продолжительность : 1 ч. 36 м.
Вид битрейта : Постоянный
Битрейт : 160 Кбит/сек
Каналы : 2 канала
Channel layout : L R
Частота : 48,0 КГц
Частота кадров : 31,250 кадров/сек (1536 SPF)
Битовая глубина : 16 бит
Метод сжатия : С потерями
Размер потока : 111 Мбайт (1%)
Заголовок : iTunes
Язык : Ukrainian
ServiceKind/String : Complete Main
Default : Нет
Forced : Нет

Аудио #3
Идентификатор : 4
Формат : AC-3
Формат/Информация : Audio Coding 3
Коммерческое название : Dolby Digital
Идентификатор кодека : A_AC3
Продолжительность : 1 ч. 36 м.
Вид битрейта : Постоянный
Битрейт : 640 Кбит/сек
Каналы : 6 каналов
Channel layout : L R C LFE Ls Rs
Частота : 48,0 КГц
Частота кадров : 31,250 кадров/сек (1536 SPF)
Битовая глубина : 16 бит
Метод сжатия : С потерями
Размер потока : 443 Мбайт (4%)
Заголовок : Original
Язык : English
ServiceKind/String : Complete Main
Default : Нет
Forced : Нет

Текст #1
Идентификатор : 5
Формат : UTF-8
Идентификатор кодека : S_TEXT/UTF8
Идентификатор кодека/Информация : UTF-8 Plain Text
Продолжительность : 1 ч. 36 м.
Битрейт : 0 бит/сек
ElementCount : 16
Размер потока : 561 байт (0%)
Заголовок : Forced
Язык : Russian
Default : Да
Forced : Да

Текст #2
Идентификатор : 6
Формат : UTF-8
Идентификатор кодека : S_TEXT/UTF8
Идентификатор кодека/Информация : UTF-8 Plain Text
Продолжительность : 1 ч. 36 м.
Битрейт : 88 бит/сек
ElementCount : 1374
Размер потока : 62,4 Кбайт (0%)
Заголовок : Full
Язык : Russian
Default : Нет
Forced : Нет

Текст #3
Идентификатор : 7
Формат : UTF-8
Идентификатор кодека : S_TEXT/UTF8
Идентификатор кодека/Информация : UTF-8 Plain Text
Продолжительность : 1 ч. 36 м.
Битрейт : 86 бит/сек
ElementCount : 1373
Размер потока : 61,1 Кбайт (0%)
Заголовок : Full
Язык : Ukrainian
Default : Нет
Forced : Нет

Текст #4
Идентификатор : 8
Формат : UTF-8
Идентификатор кодека : S_TEXT/UTF8
Идентификатор кодека/Информация : UTF-8 Plain Text
Продолжительность : 1 ч. 27 м.
Битрейт : 67 бит/сек
ElementCount : 1322
Размер потока : 43,4 Кбайт (0%)
Заголовок : Full
Язык : English
Default : Нет
Forced : Нет

Текст #5
Идентификатор : 9
Формат : UTF-8
Идентификатор кодека : S_TEXT/UTF8
Идентификатор кодека/Информация : UTF-8 Plain Text
Продолжительность : 1 ч. 34 м.
Битрейт : 80 бит/сек
ElementCount : 1759
Размер потока : 56,0 Кбайт (0%)
Заголовок : SDH
Язык : English
Default : Нет
Forced : Нет

Меню
00:00:00.000 : en:Chapter 01
00:05:19.444 : en:Chapter 02
00:12:05.766 : en:Chapter 03
00:18:52.673 : en:Chapter 04
00:24:11.658 : en:Chapter 05
00:28:46.349 : en:Chapter 06
00:34:48.252 : en:Chapter 07
00:40:10.157 : en:Chapter 08
00:47:11.078 : en:Chapter 09
00:52:56.298 : en:Chapter 10
00:58:04.481 : en:Chapter 11
01:04:35.913 : en:Chapter 12
01:09:55.649 : en:Chapter 13
01:15:40.285 : en:Chapter 14
01:21:11.116 : en:Chapter 15
01:26:26.598 : en:Chapter 16
piratbit.pw



Скачать Angry Birds 2 в кино через торрент https://d.radikal.ru/d26/1910/b8/ae15d60c6d01.png Скачать фильм Angry Birds 2 в кино через торрент бесплантно в хорошем качестве Описание: Птицы узнали о существовании голодных зелёных свиней, после чего началась священная война, которая длилась многие годы. Однако ... 10 10 4
Торрент: Зарегистрирован [2019-11-13 13:46] · скачан: 199 раз
Статус: √ проверено
Размер: 9.87 GB
Как cкачать? Как скачать Angry Birds 2 в кино через торрент | qTorrent

% Раздел Тема Автор DL S | L
Мультфильмы (48-60 fps) [ 15.43 GB ] Angry Birds 2 в кино / The Angry Birds Movie 2 [2019 мультфильм BDRip 1080p 60 fps] DUB sheker187 Скачать
1 | 0
Ultra HD (UHD: 2K, 4K, 8K) [ 14.32 GB ] Angry Birds 2 в кино / The Angry Birds Movie 2 [2019 мультфильм UHD BDRip 2160p] [SDR] DUB bober100 Скачать
2 | 0
Ultra HD (UHD: 2K, 4K, 8K) [ 37.6 GB ] Angry Birds 2 в кино / The Angry Birds Movie 2 [2019 мультфильм UHD BDRemux 2160p] DUB bober100 Скачать
1 | 0
Иностранные мультфильмы [ 1.42 GB ] Angry Birds 2 в кино / The Angry Birds Movie 2 [2019 мультфильм BDRip] - Twi7ter Скачать
70 | 0
Иностранные мультфильмы [ 1.46 GB ] Angry Birds 2 в кино / The Angry Birds Movie 2 [2019 мультфильм HDRip] bober100 Скачать
46 | 0
Зарубежные Мультфильмы (BDRip 1080p, 720p, Blu-ray, BD-Remux) [ 8.38 GB ] Angry Birds 2 в кино / The Angry Birds Movie 2 [2019 мультфильм BDRip 1080p] DUB bober100 Скачать
4 | 0
Иностранные мультфильмы [ 1.99 GB ] Angry Birds 2 в кино / The Angry Birds Movie 2 [2019 мультфильм BDRip-AVC] - ExKinoRay Enigma2010 Скачать
102 | 0

28-11-2019 20:33  

Отключить всю рекламу на сайте

    Дорогой пользователь! Огромная просьба, поблагодарите релизера, оцените раздачу и оставьте свои комментарий, если Вы скачали Angry Birds 2 в кино через торрент бесплатно! Внесите свою лепту в развитие PiratBit!
    Комментировать посты могут только пользователи прошедшие не сложную регистрацию
    Показать сообщения:    

    Angry Birds 2 в кино через торрент
    Скачать бесплатно Angry Birds 2 в кино
    Angry Birds 2 в кино скачать торрент
    Angry Birds 2 в кино смотреть онлайн
    Cкачать фильм Angry Birds 2 в кино бесплатно
    Angry Birds 2 в кино скачать торрент в хорошем качестве
    Angry Birds 2 в кино смотреть онлайн бесплатно в хорошем качестве


    Вы не можете начинать темы
    Вы не можете отвечать на сообщения
    Вы не можете редактировать свои сообщения
    Вы не можете удалять свои сообщения
    Вы не можете голосовать в опросах
    Вы не можете прикреплять файлы к сообщениям
    Вы можете скачивать файлы