Marvel's Avengers Deluxe Edition (супер цена) 159р. Внимание количество ограничено!!!

2 сезон

iTunes

iTunes

1

iTunes

iTunes

iTunes

WEBRip

iTunes

30
pack

Новость дня

ВАЖНО

!!Акция!!

Alien_RageХит недели

RePack

Horizon Zero Dawn

ИГРА 18+

pack

RePack

jed

!!Акция!!

Alien_Rage

RePack

fifa19

RePack

Assassins Creed: Odyssey

RePack

NEED FOR SPEED™ PAYBACK

4 сезон

9 сезон

Бесстыжие 9 сезон

Все сериалы

все сериалы на PB.wtf

RePack

FAR CRY 5
  

Болевой порог (Андрей Симонов) [2019, триллер, приключения, драма, WEB-DL 720p] [iTunes] piratbit.pw

Болевой порог через торрент piratbit.pw

Размер: 2.42 GB | Добавлен: 10 мес. назад | Торрент скачан:66 раз
Скачать  

12-11-2019 15:47 Болевой порог Скачать торрент  

Болевой порог
Год выпуска: 2019
Страна: Россия
Жанр: триллер, приключения, драма
Продолжительность: 01:21:05
Перевод: Не требуется | iTunes
Субтитры: отсутствуют

Режиссер: Андрей Симонов

rating

В ролях: Арина Постникова, Роман Курцын, Кирилл Комаров, Наталья Скоморохова, Григорий Чабан, Александр Голубков, Олег Фомин, Евгений Атарик, Евгений Мундум, Алексей Дерябкин

Описание: В результате скандального ДТП четверо москвичей - двое друзей и их девушки - вынуждены уехать из столицы в Горный Алтай. Они хотят расслабиться и отдохнуть, но вновь попадают в экстремальную ситуацию, где каждый проявит свой характер и столкнется с собственными демонами. На кону - дружба, любовь и сама возможность остаться в живых.

Качество: WEB-DL 720p
Формат: MKV

Видео: MPEG-4 AVC, 3 900 Кбит/с, 1280x544
Аудио: Russian: AC3, 6 ch, 48 kHz, 384 kbps - iTunes
скриншот  скриншот  скриншот  скриншот  скриншот  

Общее
Уникальный идентификатор : 181318403519810590118741787321809628142 (0x8868A77EF11DF921916F88525631EBEE)
Полное имя : C:\Bolevoj.porog.2O19.O.WEB-DL.720p.mkv
Формат : Matroska
Версия формата : Version 2
Размер файла : 2,42 Гбайт
Продолжительность : 1 ч. 21 м.
Общий поток : 4267 Кбит/сек
Дата кодирования : UTC 2019-11-12 13:39:46
Программа кодирования : mkvmerge v8.3.0 ('Over the Horizon') 32bit
Библиотека кодирования : libebml v1.3.1 + libmatroska v1.4.2

Видео
Идентификатор : 1
Формат : AVC
Формат/Информация : Advanced Video Codec
Профиль формата : High@L4.1
Настройки формата : CABAC / 4 Ref Frames
Параметр CABAC формата : Да
Параметр RefFrames формата : 4 кадра
Идентификатор кодека : V_MPEG4/ISO/AVC
Продолжительность : 1 ч. 21 м.
Битрейт : 3900 Кбит/сек
Ширина : 1280 пикселей
Высота : 544 пикселя
Соотношение сторон : 2,35:1
Режим частоты кадров : Постоянный
Частота кадров : 25,000 кадров/сек
Цветовое пространство : YUV
Субдискретизация насыщенности : 4:2:0
Битовая глубина : 8 бит
Тип развёртки : Прогрессивная
Бит/(Пиксели*Кадры) : 0.224
Размер потока : 2,15 Гбайт (89%)
Библиотека кодирования : x264 core 142 r2431+42 c69a006 tMod [8-bit@all X86_64]
Настройки программы : cabac=1 / ref=4 / deblock=1:0:0 / analyse=0x3:0x133 / me=hex / subme=2 / psy=1 / fade_compensate=0.00 / psy_rd=1.00:0.00 / mixed_ref=1 / me_range=16 / chroma_me=1 / trellis=2 / 8x8dct=1 / cqm=0 / deadzone=21,11 / fast_pskip=0 / chroma_qp_offset=0 / threads=24 / lookahead_threads=4 / sliced_threads=0 / nr=0 / decimate=1 / interlaced=0 / bluray_compat=0 / constrained_intra=0 / fgo=0 / bframes=2 / b_pyramid=2 / b_adapt=2 / b_bias=0 / direct=1 / weightb=1 / open_gop=0 / weightp=2 / keyint=240 / keyint_min=24 / scenecut=40 / intra_refresh=0 / rc=abr / mbtree=0 / bitrate=3900 / ratetol=1.0 / qcomp=0.60 / qpmin=0:0:0 / qpmax=69:69:69 / qpstep=4 / ip_ratio=1.40 / pb_ratio=1.30 / aq=1:1.00 / aq-sensitivity=10.00 / aq-factor=1.00:1.00:1.00 / aq2=0 / aq3=0
Default : Да
Forced : Нет

Аудио
Идентификатор : 2
Формат : AC-3
Формат/Информация : Audio Coding 3
Коммерческое название : Dolby Digital
Идентификатор кодека : A_AC3
Продолжительность : 1 ч. 21 м.
Вид битрейта : Постоянный
Битрейт : 384 Кбит/сек
Каналы : 6 каналов
ChannelLayout : L R C LFE Ls Rs
Частота : 48,0 КГц
Частота кадров : 31,250 кадров/сек (1536 SPF)
Битовая глубина : 16 бит
Метод сжатия : С потерями
Размер потока : 223 Мбайт (9%)
ServiceKind/String : Complete Main
Default : Да
Forced : Нет

piratbit.pw



Скачать Болевой порог через торрент https://a.radikal.ru/a35/1910/fb/718dc1adb01d.jpg Скачать фильм Болевой порог через торрент бесплантно в хорошем качестве Описание: В результате скандального ДТП четверо москвичей - двое друзей и их девушки - вынуждены уехать из столицы в Горный Алтай. Они ... 9.2 10 6
Торрент: Зарегистрирован [2019-11-12 15:47] · скачан: 66 раз
Статус: √ проверено
Размер: 2.42 GB
Как cкачать? Как скачать Болевой порог через торрент | qTorrent

% Раздел Тема Автор DL S | L
Наши фильмы (HD, WEB-DL 720p, 1080p) [ 2.84 GB ] Болевой порог [2019 WEB-DL 1080p] bober100 Скачать
2 | 0
Наши новые фильмы 2018-2019 [ 745 MB ] Болевой порог [2019 WEB-DLRip-AVC] - OlLanDGroup Skandar2019 Скачать
3 | 0
Наши новые фильмы 2018-2019 [ 1.7 GB ] Болевой порог [2019 WEB-DLRip-AVC] - ExKinoRay Enigma2010 Скачать
6 | 0
Наши новые фильмы 2018-2019 [ 745 MB ] Болевой порог [2019 WEB-DLRip] - OlLanDGroup Skandar2019 Скачать
2 | 0
Наши новые фильмы 2018-2019 [ 1.45 GB ] Болевой порог [2019 WEB-DLRip-AVC] bober100 Скачать
2 | 0
Наши новые фильмы 2018-2019 [ 1.37 GB ] Болевой порог [2019 WEB-DLRip] bober100 Скачать
2 | 0

28-11-2019 20:33  

Отключить всю рекламу на сайте

    Дорогой пользователь! Огромная просьба, поблагодарите релизера, оцените раздачу и оставьте свои комментарий, если Вы скачали Болевой порог через торрент бесплатно! Внесите свою лепту в развитие PiratBit!
    Комментировать посты могут только пользователи прошедшие не сложную регистрацию
    Показать сообщения:    

    Болевой порог через торрент
    Скачать бесплатно Болевой порог
    Болевой порог скачать торрент
    Болевой порог смотреть онлайн
    Cкачать фильм Болевой порог бесплатно
    Болевой порог скачать торрент в хорошем качестве
    Болевой порог смотреть онлайн бесплатно в хорошем качестве


    Вы не можете начинать темы
    Вы не можете отвечать на сообщения
    Вы не можете редактировать свои сообщения
    Вы не можете удалять свои сообщения
    Вы не можете голосовать в опросах
    Вы не можете прикреплять файлы к сообщениям
    Вы можете скачивать файлы