1 сезон

1 сезон

iTunes

1

КиноПоиск HD

Кинопоиск HD

iTunes

13

1 сезон

RePack

30

Новинка

ВАЖНО

ИГРА 18+

pack

RePack

MK11
pack

Легкие деньги

RePack

jed

RePack

fifa19

RePack

RDR2

RePack

NEED FOR SPEED™ PAYBACK

4 сезон

9 сезон

Бесстыжие 9 сезон

Все сериалы

все сериалы на PB.wtf

RePack

FAR CRY 5
  
Magnet ссылка

Арахисовый сокол / The Peanut Butter Falcon (Тайлер Нилсон, Майк Шварц) [2019, Драма, комедия, приключения, BDRip 1080p] AVO [А.Важенин [BadBajo] piratbit.pw

Арахисовый сокол через торрент piratbit.pw

Размер: 8.98 GB | Добавлен: 1 год 5 мес. назад | Торрент скачан:42 раза
Скачать  

02-11-2019 09:26 Арахисовый сокол Скачать торрент  

Арахисовый сокол / The Peanut Butter Falcon
Год выпуска: 2019
Страна: США
Жанр: Драма, комедия, приключения
Продолжительность: 01:36:56
Перевод: Авторский (одноголосый) |
Субтитры: Английские

Режиссер: Тайлер Нилсон, Майк Шварц

rating


В ролях: Шайа ЛаБаф, Дакота Джонсон, Зак Готтзаген, Джон Хоукс, Томас Хейден Чёрч, Брюс Дерн, Джон Бернтал, Джейк Робертс, Мик Фоли

Описание: Большое путешествие начинается с шага, а легендарное — с полета. Вылетев в окно, герой очутился в мире, где чего-то не хватало. Его новому другу — крупной суммы денег. Паре головорезов — головы друга. Молодой медсестре — любви. А ему — путешествий на плоту, погонь, пылающих костров и немного арахисового масла.

Качество: BDRip 1080p
Формат: MKV

Видео: 1920х808, ~9789 Kbps, 23.976 (24000/1001) FPS
Аудио#1: Русский: DTS, 6 ch, 1 509 Kbps (BadBajo)
Аудио#2: Русский: AC3, 6 ch, 448 Kbps (BadBajo)
Аудио#3: Английский: DTS, 6 ch, 1 509 Kbps
скриншот  скриншот  скриншот  

скриншот  скриншот  скриншот  

Общее
Уникальный идентификатор : 82149288418241024053635030386035899912 (0x3DCD60A065E3F3C3CDAD19256CF3BE08)
Полное имя : D:\the.peanut.butter.falcon.2019.1080p.bluray.x264_rus_BadBajo.mkv
Формат : Matroska
Версия формата : Version 4 / Version 2
Размер файла : 8,98 Гбайт
Продолжительность : 1 ч. 36 м.
Общий поток : 13,3 Мбит/сек
Название фильма : the.peanut.butter.falcon.2019.1080p.bluray.x264_rus_BadBajo
Дата кодирования : UTC 2019-11-02 04:45:42
Программа кодирования : mkvmerge v33.1.0 ('Primrose') 64-bit
Библиотека кодирования : libebml v1.3.7 + libmatroska v1.5.0
Обложка : Yes
Attachments : cover.jpg / small_cover.jpg

Видео
Идентификатор : 1
Формат : AVC
Формат/Информация : Advanced Video Codec
Профиль формата : High@L4.1
Параметр CABAC формата : Да
Параметр RefFrames формата : 5 кадров
Идентификатор кодека : V_MPEG4/ISO/AVC
Продолжительность : 1 ч. 36 м.
Битрейт : 9789 Кбит/сек
Ширина : 1920 пикселей
Высота : 808 пикселей
Соотношение сторон : 2,40:1
Режим частоты кадров : Постоянный
Частота кадров : 23,976 (24000/1001) кадра/сек
Цветовое пространство : YUV
Субдискретизация насыщенности : 4:2:0
Битовая глубина : 8 бит
Тип развёртки : Прогрессивная
Бит/(Пиксели*Кадры) : 0.263
Размер потока : 6,45 Гбайт (72%)
Библиотека кодирования : x264 core 158 r2984 3759fcb
Настройки программы : cabac=1 / ref=5 / deblock=1:-3:-3 / analyse=0x3:0x113 / me=umh / subme=8 / psy=1 / psy_rd=1.00:0.00 / mixed_ref=1 / me_range=16 / chroma_me=1 / trellis=1 / 8x8dct=1 / cqm=0 / deadzone=21,11 / fast_pskip=1 / chroma_qp_offset=-2 / threads=25 / lookahead_threads=4 / sliced_threads=0 / nr=0 / decimate=1 / interlaced=0 / bluray_compat=0 / constrained_intra=0 / bframes=3 / b_pyramid=2 / b_adapt=1 / b_bias=0 / direct=3 / weightb=1 / open_gop=0 / weightp=2 / keyint=250 / keyint_min=23 / scenecut=40 / intra_refresh=0 / rc_lookahead=50 / rc=2pass / mbtree=1 / bitrate=9789 / ratetol=1.0 / qcomp=0.60 / qpmin=0 / qpmax=69 / qpstep=4 / cplxblur=20.0 / qblur=0.5 / ip_ratio=1.40 / aq=1:1.00
Язык : English
Default : Да
Forced : Нет

Аудио #1
Идентификатор : 2
Формат : DTS
Формат/Информация : Digital Theater Systems
Режим : 16
Параметр Endianness формата : Big
Идентификатор кодека : A_DTS
Продолжительность : 1 ч. 36 м.
Вид битрейта : Постоянный
Битрейт : 1510 Кбит/сек
Каналы : 6 каналов
Расположение каналов : Front: L C R, Side: L R, LFE
Частота : 48,0 КГц
Частота кадров : 93,750 кадра/сек (512 spf)
Битовая глубина : 24 бит
Метод сжатия : С потерями
Размер потока : 1,02 Гбайт (11%)
Заголовок : the.peanut.butter.falcon.2019.DTS_rus_BadBajo
Язык : Russian
Default : Да
Forced : Да

Аудио #2
Идентификатор : 3
Формат : AC-3
Формат/Информация : Audio Coding 3
Расширение режима : CM (complete main)
Параметр Endianness формата : Big
Идентификатор кодека : A_AC3
Продолжительность : 1 ч. 36 м.
Вид битрейта : Постоянный
Битрейт : 448 Кбит/сек
Каналы : 6 каналов
Расположение каналов : Front: L C R, Side: L R, LFE
Частота : 48,0 КГц
Частота кадров : 31,250 кадров/сек (1536 spf)
Метод сжатия : С потерями
Размер потока : 311 Мбайт (3%)
Заголовок : the.peanut.butter.falcon.2019.AC3_rus_BadBajo
Язык : Russian
Default : Нет
Forced : Нет

Аудио #3
Идентификатор : 4
Формат : DTS
Формат/Информация : Digital Theater Systems
Режим : 16
Параметр Endianness формата : Big
Идентификатор кодека : A_DTS
Продолжительность : 1 ч. 36 м.
Вид битрейта : Постоянный
Битрейт : 1509 Кбит/сек
Каналы : 6 каналов
Расположение каналов : Front: L C R, Side: L R, LFE
Частота : 48,0 КГц
Частота кадров : 93,750 кадра/сек (512 spf)
Битовая глубина : 24 бит
Метод сжатия : С потерями
Размер потока : 1,02 Гбайт (11%)
Заголовок : the.peanut.butter.falcon.2019.DTS_eng
Язык : English
Default : Нет
Forced : Нет

Текст
Идентификатор : 5
Формат : UTF-8
Идентификатор кодека : S_TEXT/UTF8
Идентификатор кодека/Информация : UTF-8 Plain Text
Язык : English
Default : Нет
Forced : Нет

piratbit.pw



Скачать Арахисовый сокол через торрент https://d.radikal.ru/d03/1911/78/b1d9e3ef3491.jpg Скачать фильм Арахисовый сокол через торрент бесплантно в хорошем качестве Описание: Большое путешествие начинается с шага, а легендарное — с полета. Вылетев в окно, герой очутился в мире, где чего-то не хватало. ... 10 10 4
Торрент: Зарегистрирован [2019-11-02 09:26] · скачан: 42 раз
Статус: T временная
Размер: 8.98 GB
Как cкачать? Как скачать Арахисовый сокол через торрент | UTorrent

% Раздел Тема Автор DL S | L
Фильмы 2019-2020 [DVDrip, WEB-DLRip, HDrip] (DUB, MVO) [ 1.42 GB ] Арахисовый сокол / The Peanut Butter Falcon [2019 BDRip] - Twi7ter Скачать
34 | 2
Фильмы 2019-2020 [DVDrip, WEB-DLRip, HDrip] (DUB, MVO) [ 2.09 GB ] Арахисовый сокол / The Peanut Butter Falcon [2019 BDRip-AVC] +AVO [BadBajo] bober100 Скачать
1 | 0
Фильмы (Blu-ray, BD-Remux, HDDVD) [ 18.31 GB ] Арахисовый сокол / The Peanut Butter Falcon [2019 BD Remux 1080p] bober100 Скачать
2 | 0
Фильмы с авторской озвучкой [ 1.67 GB ] Арахисовый сокол / The Peanut Butter Falcon [2019 BDRip-AVC] AVO [А.Важенин [BadBajo] - ExKinoRay Enigma2010 Скачать
18 | 0

28-11-2019 20:33  

Отключить всю рекламу на сайте

    Дорогой пользователь! Огромная просьба, поблагодарите релизера, оцените раздачу и оставьте свои комментарий, если Вы скачали Арахисовый сокол через торрент бесплатно! Внесите свою лепту в развитие PiratBit!
    Комментировать посты могут только пользователи прошедшие не сложную регистрацию
    Показать сообщения:    

    Арахисовый сокол через торрент
    Скачать бесплатно Арахисовый сокол
    Арахисовый сокол скачать торрент
    Арахисовый сокол смотреть онлайн
    Cкачать фильм Арахисовый сокол бесплатно
    Арахисовый сокол скачать торрент в хорошем качестве
    Арахисовый сокол смотреть онлайн бесплатно в хорошем качестве


    Вы не можете начинать темы
    Вы не можете отвечать на сообщения
    Вы не можете редактировать свои сообщения
    Вы не можете удалять свои сообщения
    Вы не можете голосовать в опросах
    Вы не можете прикреплять файлы к сообщениям
    Вы можете скачивать файлы