новый адрес
Мега распродажа FORZA HORIZON 4 ULTIMATE+ВСЕ DLC+ОНЛАЙН всего за 499р. 349 руб. (супер цена). Внимание количество ограничено!!!

iTunes

1+1

iTunes

мы

iTunes

1

iTunes

Чернобыль

iTunes

Ральф против интернета

Лицензия

ПШазам

Лицензия

Оно 2

Лицензия

30
pack

ВАЖНО

!!Акция!!

Alien_RageХит недели

RePack

Resident Evil 21

ИГРА 18+

pack

RePack

jed

!!Акция!!

Alien_Rage

RePack

fifa19

RePack

Assassins Creed: Odyssey

RePack

NEED FOR SPEED™ PAYBACK

3 сезон

9 сезон

Бесстыжие 9 сезон

Все сериалы

все сериалы на PB.wtf

RePack

FAR CRY 5
Ребята, катастрофически не хватает 1900р. для оплаты серверов за Октябрь (всвязи с блокировками трафик упал в 3 раза), 1-2р., выручайте.
  

Маленькие чудовища / Little Monsters (Абе Форсайт) [2019, Ужасы, комедия, WEB-DL 1080p] DUB [iTunes] piratbit.pw

Маленькие чудовища через торрент piratbit.pw

Раздают: 10 [ 135 KB/s ]
Размер: 3.5 GB | Добавлен: 10 д. назад | Торрент скачан:244 раза
Скачать  

11-11-2019 01:03 Маленькие чудовища Скачать торрент  

Маленькие чудовища / Little Monsters
Год выпуска: 2019
Страна: Австралия, Великобритания, США
Студия: Made Up Stories, Protagonist Pictures, Snoot Entertainment
Жанр: Ужасы, комедия
Продолжительность: 01:33:43
Перевод: Дублированный | iTunes
Субтитры: Русские (Переведено студией FOCS, присутствует ненормативная лексика!), английские, испанские

Режиссер: Абе Форсайт

rating

В ролях: Лупита Нионго, Джош Гэд, Стивен Пикок, Кэт Стюарт, Александр Инглэнд, Надя Таунсенд, Феликс Уильямсон, Маршалл Напье, Генри Никсон, Джейсон Чонг, Дизель Ла Торрак, Саския Бурмайстер, Рахель Абдулрахман

Описание: Учительница начальных классов везёт группу детей за город на экскурсию, когда на местности происходит вспышка зомби-вируса. Чтобы спастись и не травмировать детскую психику, женщина убеждает малышей в том, что все эти зомби, кровь, кишки - ненастоящие, а всё происходящее - просто игра. Странная, но весёлая. И вот тот дядя корчится не от боли, а от радости. И не корчится, а смеётся.

Качество: WEB-DL 1080p
Формат: MKV

Видео: MPEG-4 AVC, 4318 Kбит/с, 1920x1080, 24.000 кадр/с
Аудио#1: Русский ( АС3, 6ch, 384 Кбит/с, 48.0 KHz) Профессиональный (дублированный) iTunes
Аудио#2: Английский ( АС3, 6 ch, 640 Кбит/с, 48.0 KHz)
скриншот  скриншот  скриншот  скриншот  скриншот  

Источник: Little.Monsters.2019.1080p.HULU.WEB-DL.DD5.1.x264-FGT
General
Unique ID : 229039302561472743844645473653054636570 (0xAC4F5D78CC1D43CB89648E39DA42021A)
Complete name : Little.Monsters.2019.WEB-DL.1080p.mkv
Format : Matroska
Format version : Version 4
File size : 3.50 GiB
Duration : 1 h 33 min
Overall bit rate : 5 344 kb/s
Movie name : Little.Monsters.2019.1080p.HULU.WEB-DL.DD5.1.x264-FGT
Encoded date : UTC 2019-11-10 22:45:00
Writing application : mkvmerge v7.1.0 ('Good Love') 64bit built on Jul 27 2014 13:06:55
Writing library : libebml v1.3.0 + libmatroska v1.4.1

Video
ID : 1
Format : AVC
Format/Info : Advanced Video Codec
Format profile : High@L4
Format settings : CABAC / 4 Ref Frames
Format settings, CABAC : Yes
Format settings, Reference fra : 4 frames
Codec ID : V_MPEG4/ISO/AVC
Duration : 1 h 33 min
Bit rate : 4 318 kb/s
Width : 1 920 pixels
Height : 1 080 pixels
Display aspect ratio : 16:9
Frame rate mode : Constant
Frame rate : 24.000 FPS
Color space : YUV
Chroma subsampling : 4:2:0
Bit depth : 8 bits
Scan type : Progressive
Bits/(Pixel*Frame) : 0.087
Stream size : 2.83 GiB (81%)
Language : English
Default : Yes
Forced : No

Audio #1
ID : 2
Format : AC-3
Format/Info : Audio Coding 3
Commercial name : Dolby Digital
Codec ID : A_AC3
Duration : 1 h 33 min
Bit rate mode : Constant
Bit rate : 384 kb/s
Channel(s) : 6 channels
Channel layout : L R C LFE Ls Rs
Sampling rate : 48.0 kHz
Frame rate : 31.250 FPS (1536 SPF)
Compression mode : Lossy
Stream size : 257 MiB (7%)
Title : DUB | iTunes
Language : Russian
Service kind : Complete Main
Default : Yes
Forced : No

Audio #2
ID : 3
Format : AC-3
Format/Info : Audio Coding 3
Commercial name : Dolby Digital
Codec ID : A_AC3
Duration : 1 h 33 min
Bit rate mode : Constant
Bit rate : 640 kb/s
Channel(s) : 6 channels
Channel layout : L R C LFE Ls Rs
Sampling rate : 48.0 kHz
Frame rate : 31.250 FPS (1536 SPF)
Compression mode : Lossy
Stream size : 429 MiB (12%)
Language : English
Service kind : Complete Main
Default : No
Forced : No

Text #1
ID : 4
Format : UTF-8
Codec ID : S_TEXT/UTF8
Codec ID/Info : UTF-8 Plain Text
Duration : 1 h 33 min
Bit rate : 115 b/s
Count of elements : 1513
Stream size : 78.9 KiB (0%)
Title : Focs
Language : Russian
Default : No
Forced : No

Text #2
ID : 5
Format : UTF-8
Codec ID : S_TEXT/UTF8
Codec ID/Info : UTF-8 Plain Text
Duration : 1 h 33 min
Bit rate : 90 b/s
Count of elements : 1820
Stream size : 61.8 KiB (0%)
Language : English
Default : No
Forced : No

Text #3
ID : 6
Format : UTF-8
Codec ID : S_TEXT/UTF8
Codec ID/Info : UTF-8 Plain Text
Duration : 1 h 33 min
Bit rate : 96 b/s
Count of elements : 1879
Stream size : 66.2 KiB (0%)
Language : Spanish
Default : No
Forced : No

piratbit.pw



Скачать Маленькие чудовища через торрент https://b.radikal.ru/b17/1911/ac/34c1259fb80d.png Скачать фильм Маленькие чудовища через торрент бесплантно в хорошем качестве Описание: Учительница начальных классов везёт группу детей за город на экскурсию, когда на местности происходит вспышка зомби-вируса. Чтобы ... 9.8 10 6
Торрент: Зарегистрирован [2019-11-11 01:03] · скачан: 244 раз
Статус: √ проверено
Размер: 3.5 GB
Как cкачать? Как скачать Маленькие чудовища через торрент | qTorrent

% Раздел Тема Автор DL S | L
Фильмы 2019 [DVDrip, WEB-DLRip, HDrip] (DUB, MVO) [ 1.46 GB ] Маленькие чудовища / Little Monsters [2019 WEB-DLRip] bober100 Скачать
12 | 0
Фильмы 2019 [DVDrip, WEB-DLRip, HDrip] (DUB, MVO) [ 746 MB ] Маленькие чудовища / Little Monsters [2019 WEB-DLRip-AVC] - OlLanDGroup Skandar2019 Скачать
4 | 0
Фильмы 2019 [DVDrip, WEB-DLRip, HDrip] (DUB, MVO) [ 745 MB ] Маленькие чудовища / Little Monsters [2019 WEB-DLRip] - OlLanDGroup Skandar2019 Скачать
6 | 0


>> Регистрируемся здесь <<






Отзывы и комментарии о схеме читаем и пишем здесь: ---> Отзывы и комментарии о схеме

Новые благодарочки в телеграм довольных пользователей:
скриншот   скриншот   скриншот   скриншот   скриншот
    Дорогой пользователь! Огромная просьба, поблагодарите релизера, оцените раздачу и оставьте свои комментарий, если Вы скачали Маленькие чудовища через торрент бесплатно! Внесите свою лепту в развитие PiratBit!
    Комментировать посты могут только пользователи прошедшие не сложную регистрацию
    Показать сообщения:    

    Маленькие чудовища через торрент
    Скачать бесплатно Маленькие чудовища
    Маленькие чудовища скачать торрент
    Маленькие чудовища смотреть онлайн
    Cкачать фильм Маленькие чудовища бесплатно
    Маленькие чудовища скачать торрент в хорошем качестве
    Маленькие чудовища смотреть онлайн бесплатно в хорошем качестве


    Вы не можете начинать темы
    Вы не можете отвечать на сообщения
    Вы не можете редактировать свои сообщения
    Вы не можете удалять свои сообщения
    Вы не можете голосовать в опросах
    Вы не можете прикреплять файлы к сообщениям
    Вы можете скачивать файлы