новый адрес
Ссылка на приватное зеркало всего за 1$. Внимание количество ограничено!!!

iTunes

1+1

iTunes

мы

WEB-DL

1

iTunes

Чернобыль

iTunes

Ральф против интернета

Лицензия

ПШазам

Лицензия

Оно 2

Лицензия

30
pack

Вам бонус

ВАЖНО

!!Акция!!

Alien_RageХит недели

RePack

Resident Evil 21

ИГРА 18+

pack

RePack

jed

!!Акция!!

Alien_Rage

RePack

fifa19

RePack

Assassins Creed: Odyssey

RePack

NEED FOR SPEED™ PAYBACK

3 сезон

9 сезон

Бесстыжие 9 сезон

Все сериалы

все сериалы на PB.wtf

RePack

FAR CRY 5
Ребята, катастрофически не хватает 1900р. для оплаты серверов за Октябрь (всвязи с блокировками трафик упал в 3 раза), 1-2р., выручайте.
  

Алиса в стране чудес / Alice in Wonderland (Клайд Джероними, Уилфред Джексон, Хэмильтон Ласки) [1951, мультфильм, мюзикл, фэнтези, приключения, семейный, BDRemux 1080p] DUB + MVO + DVO + 2xAVO - KORSAR piratbit.pw

Алиса в стране чудес через торрент piratbit.pw

Раздают: 3 [ 0 KB/s ]
Размер: 18.59 GB | Добавлен: 1 мес. 1 д. назад | Торрент скачан:38 раз
Скачать  

09-11-2019 13:09 Алиса в стране чудес Скачать торрент  

Алиса в стране чудес / Alice in Wonderland
Год выпуска: 1951
Страна: США
Жанр: Мультфильм, мюзикл, фэнтези, приключения, семейный
Продолжительность: 01:15:28
Перевод: Дублированный, профессиональный многоголосый, профессиональный двухголосый, авторский, любительский одноголосый
Субтитры: Русские, английские
Режиссёры: Клайд Джероними, Уилфред Джексон, Хэмильтон Ласки
В ролях: Катрин Бомонт, Эд Винн, Ричард Хейдн, Стерлинг Холлоуэй, Джерри Колонна, Верна Фелтон, Дж. Пэт О’Мэлли, Билл Томпсон, Хэзер Эйнджел, Джозеф Кернс
Описание: Убежав из дома, Алиса увидела под старой яблоней большого белого кролика, одетого в куртку и жилет. Достав из кармана часы, кролик торопливо скрылся в подозрительно темной норе. Набравшись смелости, Алиса шагнула вслед за ним и попала в чудесный сказочный мир, где сбываются самые несбыточные фантазии.

rating

Качество: BDRemux 1080p
Формат: MKV
Видео: MPEG-4 AVC, 1920x1080 (16:9), 24012 kbps, 23.976 fps
Аудио 1: Russian: 48 kHz, Dolby Digital Audio, 5.1 ch, 640 kbps - DUB, Blu-Ray
Аудио 2: Russian: 48 kHz, Dolby Digital Audio, 5.1 ch, 448 kbps - MVO
Аудио 3: Russian: 48 kHz, Dolby Digital Audio, 5.1 ch, 384 kbps - DVO, П. Гланц и Т. Казакова
Аудио 4: Russian: 48 kHz, DTS-HD MA Audio, 5.1 ch, 3093 kbps - AVO, А. Михалев (Ранний)
Аудио 5: Russian: 48 kHz, DTS-HD MA Audio, 5.1 ch, 3105 kbps - AVO, А. Михалев (Поздний)
Аудио 6: Russian: 48 kHz, Dolby Digital Audio, 5.1 ch, 448 kbps - VO, С. Белов
Аудио 7: Russian: 48 kHz, Dolby Digital Audio, 2.0 ch, 192 kbps - VO, А. Фертман (VHS)
Аудио 8: English: 48 kHz, DTS-HD MA Audio, 5.1 ch, 3081 kbps - Оригинал

Релиз от:


• Дорожки № 4,5 получены наложением чистого голоса на центр декодированного DTS-HD MA.
• Дорожка с переводом С. Белова от makcim73.
• Дорожка с переводом А. Фертмана из коллекции Марины и Саши. Оцифровка и синхронизация karlll.
Общее
Уникальный идентификатор : 194777992863077084439330170481891831306 (0x9288E07C46095AFCBB750B4C6E776E0A)
Полное имя : Алиса.в.стране.чудес.1951.BDRemux.1080p.KORSAR.mkv
Формат : Matroska
Версия формата : Version 4 / Version 2
Размер файла : 18,6 Гбайт
Продолжительность : 1 ч. 15 м.
Режим общего битрейта : Переменный
Общий поток : 35,3 Мбит/сек
Дата кодирования : UTC 2019-11-06 12:23:37
Программа кодирования : mkvmerge v7.8.0 ('River Man') 32bit built on Apr 3 2015 12:11:22
Библиотека кодирования : libebml v1.3.1 + libmatroska v1.4.2

Видео
Идентификатор : 1
Формат : AVC
Формат/Информация : Advanced Video Codec
Профиль формата : High@L4.1
Параметр CABAC формата : Да
Параметр RefFrames формата : 4 кадра
Параметр GOP формата : M=3, N=12
Идентификатор кодека : V_MPEG4/ISO/AVC
Продолжительность : 1 ч. 15 м.
Вид битрейта : Переменный
Битрейт : 24,0 Мбит/сек
Максимальный битрейт : 35,0 Мбит/сек
Ширина : 1920 пикселей
Высота : 1080 пикселей
Соотношение сторон : 16:9
Режим частоты кадров : Постоянный
Частота кадров : 23,976 (24000/1001) кадра/сек
Цветовое пространство : YUV
Субдискретизация насыщенности : 4:2:0
Битовая глубина : 8 бит
Тип развёртки : Прогрессивная
Бит/(Пиксели*Кадры) : 0.482
Размер потока : 12,6 Гбайт (68%)
Язык : English
Default : Да
Forced : Нет
Цветовой диапазон : Limited
Основные цвета : BT.709
Характеристики трансфера : BT.709
Коэффициенты матрицы : BT.709

Аудио #1
Идентификатор : 2
Формат : AC-3
Формат/Информация : Audio Coding 3
Параметр Endianness формата : Big
Идентификатор кодека : A_AC3
Продолжительность : 1 ч. 15 м.
Вид битрейта : Постоянный
Битрейт : 640 Кбит/сек
Каналы : 6 каналов
Расположение каналов : Front: L C R, Side: L R, LFE
Частота : 48,0 КГц
Частота кадров : 31,250 кадров/сек (1536 SPF)
Битовая глубина : 16 бит
Метод сжатия : С потерями
Размер потока : 345 Мбайт (2%)
Заголовок : DUB | Blu-Ray
Язык : Russian
ServiceKind/String : Complete Main
Default : Да
Forced : Нет

Аудио #2
Идентификатор : 3
Формат : AC-3
Формат/Информация : Audio Coding 3
Параметр Endianness формата : Big
Идентификатор кодека : A_AC3
Продолжительность : 1 ч. 15 м.
Вид битрейта : Постоянный
Битрейт : 448 Кбит/сек
Каналы : 6 каналов
Расположение каналов : Front: L C R, Side: L R, LFE
Частота : 48,0 КГц
Частота кадров : 31,250 кадров/сек (1536 SPF)
Битовая глубина : 16 бит
Метод сжатия : С потерями
Размер потока : 241 Мбайт (1%)
Заголовок : MVO
Язык : Russian
ServiceKind/String : Complete Main
Default : Нет
Forced : Нет

Аудио #3
Идентификатор : 4
Формат : AC-3
Формат/Информация : Audio Coding 3
Параметр Endianness формата : Big
Идентификатор кодека : A_AC3
Продолжительность : 1 ч. 15 м.
Вид битрейта : Постоянный
Битрейт : 384 Кбит/сек
Каналы : 6 каналов
Расположение каналов : Front: L C R, Side: L R, LFE
Частота : 48,0 КГц
Частота кадров : 31,250 кадров/сек (1536 SPF)
Битовая глубина : 16 бит
Метод сжатия : С потерями
Размер потока : 206 Мбайт (1%)
Заголовок : DVO, П. Гланц и Т. Казакова
Язык : Russian
ServiceKind/String : Complete Main
Default : Нет
Forced : Нет

Аудио #4
Идентификатор : 5
Формат : DTS
Формат/Информация : Digital Theater Systems
Профиль формата : MA / Core
Режим : 16
Параметр Endianness формата : Big
Идентификатор кодека : A_DTS
Продолжительность : 1 ч. 15 м.
Вид битрейта : Переменный / Постоянный
Битрейт : 3072 Кбит/сек / 1509 Кбит/сек
Каналы : 6 каналов
Расположение каналов : Front: L C R, Side: L R, LFE
Частота : 48,0 КГц
Частота кадров : 93,750 кадра/сек (512 SPF)
Битовая глубина : 24 бит
Метод сжатия : Без потерь / Lossy
Размер потока : 1,63 Гбайт (9%)
Заголовок : AVO | А. Михалев (Ранний)
Язык : Russian
Default : Нет
Forced : Нет

Аудио #5
Идентификатор : 6
Формат : DTS
Формат/Информация : Digital Theater Systems
Профиль формата : MA / Core
Режим : 16
Параметр Endianness формата : Big
Идентификатор кодека : A_DTS
Продолжительность : 1 ч. 15 м.
Вид битрейта : Переменный / Постоянный
Битрейт : 3072 Кбит/сек / 1509 Кбит/сек
Каналы : 6 каналов
Расположение каналов : Front: L C R, Side: L R, LFE
Частота : 48,0 КГц
Частота кадров : 93,750 кадра/сек (512 SPF)
Битовая глубина : 24 бит
Метод сжатия : Без потерь / Lossy
Размер потока : 1,63 Гбайт (9%)
Заголовок : AVO | А. Михалев (Поздний)
Язык : Russian
Default : Нет
Forced : Нет

Аудио #6
Идентификатор : 7
Формат : AC-3
Формат/Информация : Audio Coding 3
Параметр Endianness формата : Big
Идентификатор кодека : A_AC3
Продолжительность : 1 ч. 15 м.
Вид битрейта : Постоянный
Битрейт : 448 Кбит/сек
Каналы : 6 каналов
Расположение каналов : Front: L C R, Side: L R, LFE
Частота : 48,0 КГц
Частота кадров : 31,250 кадров/сек (1536 SPF)
Битовая глубина : 16 бит
Метод сжатия : С потерями
Размер потока : 241 Мбайт (1%)
Заголовок : VO | С. Белов
Язык : Russian
ServiceKind/String : Complete Main
Default : Нет
Forced : Нет

Аудио #7
Идентификатор : 8
Формат : AC-3
Формат/Информация : Audio Coding 3
Параметр Endianness формата : Big
Идентификатор кодека : A_AC3
Продолжительность : 1 ч. 15 м.
Вид битрейта : Постоянный
Битрейт : 192 Кбит/сек
Каналы : 2 канала
Расположение каналов : Front: L R
Частота : 48,0 КГц
Частота кадров : 31,250 кадров/сек (1536 SPF)
Битовая глубина : 16 бит
Метод сжатия : С потерями
Размер потока : 104 Мбайт (1%)
Заголовок : VO | А. Фертман (VHS)
Язык : Russian
ServiceKind/String : Complete Main
Default : Нет
Forced : Нет

Аудио #8
Идентификатор : 9
Формат : DTS
Формат/Информация : Digital Theater Systems
Профиль формата : MA / Core
Режим : 16
Параметр Endianness формата : Big
Идентификатор кодека : A_DTS
Продолжительность : 1 ч. 15 м.
Вид битрейта : Переменный / Постоянный
Битрейт : 3072 Кбит/сек / 1509 Кбит/сек
Каналы : 6 каналов
Расположение каналов : Front: L C R, Side: L R, LFE
Частота : 48,0 КГц
Частота кадров : 93,750 кадра/сек (512 SPF)
Битовая глубина : 24 бит
Метод сжатия : Без потерь / Lossy
Размер потока : 1,62 Гбайт (9%)
Заголовок : Original
Язык : English
Default : Нет
Forced : Нет

Текст #1
Идентификатор : 10
Формат : UTF-8
Идентификатор кодека : S_TEXT/UTF8
Идентификатор кодека/Информация : UTF-8 Plain Text
Продолжительность : 1 ч. 14 м.
Битрейт : 0 бит/сек
ElementCount : 6
Размер потока : 171 байт (0%)
Заголовок : Forced
Язык : Russian
Default : Да
Forced : Нет

Текст #2
Идентификатор : 11
Формат : UTF-8
Идентификатор кодека : S_TEXT/UTF8
Идентификатор кодека/Информация : UTF-8 Plain Text
Продолжительность : 1 ч. 14 м.
Битрейт : 90 бит/сек
ElementCount : 950
Размер потока : 49,4 Кбайт (0%)
Заголовок : Full
Язык : Russian
Default : Нет
Forced : Нет

Текст #3
Идентификатор : 12
Формат : UTF-8
Идентификатор кодека : S_TEXT/UTF8
Идентификатор кодека/Информация : UTF-8 Plain Text
Продолжительность : 1 ч. 14 м.
Битрейт : 66 бит/сек
ElementCount : 974
Размер потока : 36,4 Кбайт (0%)
Заголовок : Full
Язык : English
Default : Нет
Forced : Нет

Текст #4
Идентификатор : 13
Формат : UTF-8
Идентификатор кодека : S_TEXT/UTF8
Идентификатор кодека/Информация : UTF-8 Plain Text
Продолжительность : 1 ч. 14 м.
Битрейт : 64 бит/сек
ElementCount : 1076
Размер потока : 35,6 Кбайт (0%)
Заголовок : SDH
Язык : English
Default : Нет
Forced : Нет

Меню
00:00:00.000 : en:Chapter 1
00:01:42.102 : en:Chapter 2
00:02:58.011 : en:Chapter 3
00:04:48.621 : en:Chapter 4
00:07:28.739 : en:Chapter 5
00:08:11.657 : en:Chapter 6
00:10:33.090 : en:Chapter 7
00:13:14.710 : en:Chapter 8
00:15:03.527 : en:Chapter 9
00:20:53.251 : en:Chapter 10
00:22:47.074 : en:Chapter 11
00:26:21.413 : en:Chapter 12
00:27:16.676 : en:Chapter 13
00:31:50.074 : en:Chapter 14
00:36:34.233 : en:Chapter 15
00:38:30.141 : en:Chapter 16
00:41:36.660 : en:Chapter 17
00:47:45.487 : en:Chapter 18
00:50:00.622 : en:Chapter 19
00:53:58.568 : en:Chapter 20
00:56:08.865 : en:Chapter 21
00:57:18.434 : en:Chapter 22
00:58:58.910 : en:Chapter 23
01:00:09.981 : en:Chapter 24
01:02:35.710 : en:Chapter 25
01:06:52.049 : en:Chapter 26
01:11:29.785 : en:Chapter 27
piratbit.pw



Скачать Алиса в стране чудес через торрент https://i1.imageban.ru/out/2019/11/09/8dbd2f202808a24d09bcda5b60ee1f29.png Скачать фильм Алиса в стране чудес через торрент бесплантно в хорошем качестве Описание: Убежав из дома, Алиса увидела под старой яблоней большого белого кролика, одетого в куртку и жилет. Достав из кармана часы, ... 10 10 6
Info! Золотая раздача, скачанное не засчитывается.
Торрент: Зарегистрирован [2019-11-09 13:09] · скачан: 38 раз
Статус: √ проверено
Размер: 18.59 GB
Как cкачать? Как скачать Алиса в стране чудес через торрент | qTorrent

28-11-2019 20:33  

Отключить всю рекламу на сайте

    Дорогой пользователь! Огромная просьба, поблагодарите релизера, оцените раздачу и оставьте свои комментарий, если Вы скачали Алиса в стране чудес через торрент бесплатно! Внесите свою лепту в развитие PiratBit!
    Комментировать посты могут только пользователи прошедшие не сложную регистрацию
    Показать сообщения:    

    Алиса в стране чудес через торрент
    Скачать бесплатно Алиса в стране чудес
    Алиса в стране чудес скачать торрент
    Алиса в стране чудес смотреть онлайн
    Cкачать фильм Алиса в стране чудес бесплатно
    Алиса в стране чудес скачать торрент в хорошем качестве
    Алиса в стране чудес смотреть онлайн бесплатно в хорошем качестве


    Вы не можете начинать темы
    Вы не можете отвечать на сообщения
    Вы не можете редактировать свои сообщения
    Вы не можете удалять свои сообщения
    Вы не можете голосовать в опросах
    Вы не можете прикреплять файлы к сообщениям
    Вы можете скачивать файлы