новый адрес
Мега распродажа FORZA HORIZON 4 ULTIMATE+ВСЕ DLC+ОНЛАЙН всего за 499р. 349 руб. (супер цена). Внимание количество ограничено!!!

iTunes

1+1

iTunes

мы

iTunes

1

iTunes

Чернобыль

iTunes

Ральф против интернета

Лицензия

ПШазам

Лицензия

Оно 2

Лицензия

30
pack

ВАЖНО

!!Акция!!

Alien_RageХит недели

RePack

Resident Evil 21

ИГРА 18+

pack

RePack

jed

!!Акция!!

Alien_Rage

RePack

fifa19

RePack

Assassins Creed: Odyssey

RePack

NEED FOR SPEED™ PAYBACK

3 сезон

9 сезон

Бесстыжие 9 сезон

Все сериалы

все сериалы на PB.wtf

RePack

FAR CRY 5
Ребята, катастрофически не хватает 1900р. для оплаты серверов за Октябрь (всвязи с блокировками трафик упал в 3 раза), 1-2р., выручайте.
  

Убийства по пятницам / Сезон: 2 / Серии: 1-4 из 4 (Карен Захаров) [2019, Детектив, WEB-DLRip] piratbit.pw

Убийства по пятницам через торрент piratbit.pw

Размер: 2.73 GB | Добавлен: 12 д. назад | Торрент скачан:19 раз
Скачать  

08-11-2019 15:52 Убийства по пятницам Скачать торрент  

Убийства по пятницам
Год выпуска: 2019
Страна: Россия
Жанр: Детектив
Продолжительность: ~ 00:46:00
Субтитры: отсутствуют

Режиссер: Карен Захаров



В ролях: Андрей Ильин, Тамара Акулова, Антонина Дивина, Юрий Поляк, Олег Алмазов, Константин Соловьёв, Александра Никифорова, Алёна Яковлева, Максим Важов, Андрей Харыбин

Описание: Прошло три года с тех пор, как усадьбу Шелеховых потрясла череда загадочных убийств. В отношениях Нины и Андрея наступает кризис. Элен, не смотря на рождение дочки, не чувствует себя счастливой в браке с Мамонтовым… Но все неприятности отходят на второй план, когда семья получает от Владимира Шелехова записку со странными стихами — обещанием новых убийств. А через несколько дней сам Шелехов сбегает из психиатрической клиники. Семья в панике. Убийца на свободе, и у них на руках — жуткие предсказания новых убийств. Охрану дома усиливают. Полиция не просто охраняет дом — здесь мышь не проскочит. Однако вопреки всякой логике каждую пятницу в усадьбе находят новый труп.

Качество: WEB-DLRip
Формат: AVI

Видео: 720x400 (1.80:1), 25 fps, XviD ~1930 kbps avg, 0.268 bit/pixel
Аудио: 48.0 kHz, AC3 Dolby Digital, 2/0 (L,R) ch, ~ 192 kbps
скриншот  скриншот  скриншот  скриншот  

General
Complete name : D:\Ubiystva.po.piatnicam.s02.(2019).WEB-DLRip.ExKinoRay\Ubiystva.po.piatnicam.s02.e01.(2019).WEB-DLRip.ExKinoRay.avi
Format : AVI
Format/Info : Audio Video Interleave
File size : 699 MiB
Duration : 45 min 50 s
Overall bit rate : 2 133 kb/s
Writing application : VirtualDubMod 1.5.10.3 | www.virtualdub-fr.org || (build 2550/release)
Writing library : VirtualDubMod build 2550/release

Video
ID : 0
Format : MPEG-4 Visual
Format profile : Advanced Simple@L5
Format settings : BVOP1 / Custom Matrix
Format settings, BVOP : 1
Format settings, QPel : No
Format settings, GMC : No warppoints
Format settings, Matrix : Custom
Codec ID : XVID
Codec ID/Hint : XviD
Duration : 45 min 50 s
Bit rate : 1 931 kb/s
Width : 720 pixels
Height : 400 pixels
Display aspect ratio : 16:9
Frame rate : 25.000 FPS
Color space : YUV
Chroma subsampling : 4:2:0
Bit depth : 8 bits
Scan type : Progressive
Compression mode : Lossy
Bits/(Pixel*Frame) : 0.268
Stream size : 633 MiB (91%)
Writing library : XviD 73

Audio
ID : 1
Format : AC-3
Format/Info : Audio Coding 3
Codec ID : 2000
Duration : 45 min 50 s
Bit rate mode : Constant
Bit rate : 192 kb/s
Channel(s) : 2 channels
Channel positions : Front: L R
Sampling rate : 48.0 kHz
Frame rate : 31.250 FPS (1536 SPF)
Bit depth : 16 bits
Compression mode : Lossy
Stream size : 63.0 MiB (9%)
Alignment : Split accross interleaves
Interleave, duration : 40 ms (1.00 video frame)
Interleave, preload duratio : 500 ms
Service kind : Complete Main

piratbit.pw



Скачать Убийства по пятницам через торрент https://img16.lostpic.net/2019/11/08/9bc15126005f1be973ed79017517563d.th.jpg Скачать фильм Убийства по пятницам через торрент бесплантно в хорошем качестве Описание: Прошло три года с тех пор, как усадьбу Шелеховых потрясла череда загадочных убийств. В отношениях Нины и Андрея наступает кризис. ... 10 10 4
Торрент: Зарегистрирован [2019-11-08 15:52] · скачан: 19 раз
Статус: √ проверено
Размер: 2.73 GB
Как cкачать? Как скачать Убийства по пятницам через торрент | qTorrent

% Раздел Тема Автор DL S | L
Наши сериалы [ 2.77 GB ] Убийства по пятницам / Сезон: 2 / Серии: 1-4 из 4 [2019 WEBRip-AVC] aleksan55 Скачать
3 | 0
Наши сериалы [ 2.27 GB ] Убийства по пятницам / Сезон: 2 / Серии: 1-4 из 4 [2019 WEB-DLRip-AVC] bober100 Скачать
3 | 0
Наши сериалы [ 6.53 GB ] Убийства по пятницам / Сезон: 2 / Серии: 1-4 из 4 [2019 WEB-DL 1080p] bober100 Скачать
1 | 1


>> Регистрируемся здесь <<






Отзывы и комментарии о схеме читаем и пишем здесь: ---> Отзывы и комментарии о схеме

Новые благодарочки в телеграм довольных пользователей:
скриншот   скриншот   скриншот   скриншот   скриншот
    Дорогой пользователь! Огромная просьба, поблагодарите релизера, оцените раздачу и оставьте свои комментарий, если Вы скачали Убийства по пятницам через торрент бесплатно! Внесите свою лепту в развитие PiratBit!
    Комментировать посты могут только пользователи прошедшие не сложную регистрацию
    Показать сообщения:    

    Убийства по пятницам через торрент
    Скачать бесплатно Убийства по пятницам
    Убийства по пятницам скачать торрент
    Убийства по пятницам смотреть онлайн
    Cкачать фильм Убийства по пятницам бесплатно
    Убийства по пятницам скачать торрент в хорошем качестве
    Убийства по пятницам смотреть онлайн бесплатно в хорошем качестве


    Вы не можете начинать темы
    Вы не можете отвечать на сообщения
    Вы не можете редактировать свои сообщения
    Вы не можете удалять свои сообщения
    Вы не можете голосовать в опросах
    Вы не можете прикреплять файлы к сообщениям
    Вы можете скачивать файлы