новый адрес
Мега распродажа FORZA HORIZON 4 ULTIMATE+ВСЕ DLC+ОНЛАЙН всего за 499р. 349 руб. (супер цена). Внимание количество ограничено!!!

iTunes

1+1

iTunes

мы

iTunes

1

iTunes

Чернобыль

iTunes

Ральф против интернета

Лицензия

ПШазам

Лицензия

Оно 2

Лицензия

30
pack

ВАЖНО

!!Акция!!

Alien_RageХит недели

RePack

Resident Evil 21

ИГРА 18+

pack

RePack

jed

!!Акция!!

Alien_Rage

RePack

fifa19

RePack

Assassins Creed: Odyssey

RePack

NEED FOR SPEED™ PAYBACK

3 сезон

9 сезон

Бесстыжие 9 сезон

Все сериалы

все сериалы на PB.wtf

RePack

FAR CRY 5
Ребята, катастрофически не хватает 1900р. для оплаты серверов за Октябрь (всвязи с блокировками трафик упал в 3 раза), 1-2р., выручайте.
  

Явление / Emergence / Сезон: 1 / Серии: 1-6 из 10 (Пол МакГиган, Алекс Пиллаи, Дж. Миллер Тобин [2019, Фантастика, драма WEBRip] [MVO] (HDRezka) piratbit.pw

Явление через торрент piratbit.pw

Раздают: 1 [ 0 KB/s ]
Размер: 3.15 GB | Добавлен: 12 д. назад | Торрент скачан:14 раз
Скачать  

08-11-2019 15:26 Явление Скачать торрент  

ЯВЛЕНИЕEmergence
Год выпуска: 2019
Страна: США
Жанр: Фантастика, драма
Продолжительность:~ 00:42:00
Перевод: Профессиональный (многоголосый закадровый) HDRezka
Режиссёр: Пол МакГиган, Алекс Пиллаи, Дж. Миллер Тобин

В ролях: Роберт Бэйли мл., Клэнси Браун, Алекса Суинтон, Эллисон Толман, Эшли Ауфдерхайд, Макс Крумм, Йен Кэмпбелл Данн, Куинси Данн-Бэйкер, Дональд Фэйзон, Забрина Гевара, Овайн Йомэн
Описание: Фантастический триллер рассказывает о начальнице полиции, взявшей под опеку ребёнка, найденного на месте таинственной аварии. Пережившая катастрофу девочка не получила ни царапины, зато лишилась памяти. Расследование вовлекает главную героиню в историю о масштабном заговоре, в центре которого находится её юная подопечная.
rating
Сэмпл
Релиз-- JuSSiKa

Качество: WEBRip
Формат: AVI
Видео: XviD, 720x400 (16:9), 23,976 fps, ~1500 kbps
Аудио Rus.: MP3, 48 kHz, 2 ch, 128 kbps
Аудио Eng.: MP3, 48 kHz, 2 ch, 128 kbps
Субтитры: отсутствуют

Реклама: отсутствует

Код:

Полное имя                               : Emergence.S01.WEBRip.RusEng.HDRezka\Emergence.S01E01.WEBRip.RusEng.HDRezka.JuSSiKa.avi
Формат                                   : AVI
Формат/Информация                        : Audio Video Interleave
Размер файла                             : 540 Мбайт
Продолжительность                        : 42 м. 26 с.
Общий поток                              : 1780 Кбит/сек
Программа кодирования                    : VirtualDubMod 1.5.10.3 (build 2550/release)
Библиотека кодирования                   : VirtualDubMod build 2550/release

Видео
Идентификатор                            : 0
Формат                                   : MPEG-4 Visual
Профиль формата                          : Advanced Simple@L5
Настройки формата                        : BVOP1
Параметр BVOP формата                    : 1
Параметр QPel формата                    : Нет
Параметр GMC формата                     : Без точки перехода
Параметр матрицы формата                 : Default (H.263)
Идентификатор кодека                     : XVID
Идентификатор кодека/Подсказка           : XviD
Продолжительность                        : 42 м. 26 с.
Битрейт                                  : 1510 Кбит/сек
Ширина                                   : 720 пикселей
Высота                                   : 400 пикселей
Соотношение сторон                       : 16:9
Частота кадров                           : 23,976 (24000/1001) кадра/сек
Цветовое пространство                    : YUV
Субдискретизация насыщенности            : 4:2:0
Битовая глубина                          : 8 бит
Тип развёртки                            : Прогрессивная
Метод сжатия                             : С потерями
Бит/(Пиксели*Кадры)                      : 0.219
Размер потока                            : 458 Мбайт (85%)
Библиотека кодирования                   : XviD 1.2.1 (UTC 2008-12-04)

Аудио #1
Идентификатор                            : 1
Формат                                   : MPEG Audio
Версия формата                           : Version 1
Профиль формата                          : Layer 3
Настройки формата                        : Joint stereo / MS Stereo
Режим                                    : Joint stereo
Расширение режима                        : MS Stereo
Идентификатор кодека                     : 55
Идентификатор кодека/Подсказка           : MP3
Продолжительность                        : 42 м. 26 с.
Вид битрейта                             : Постоянный
Битрейт                                  : 128 Кбит/сек
Каналы                                   : 2 канала
Частота                                  : 48,0 КГц
Метод сжатия                             : С потерями
Размер потока                            : 38,9 Мбайт (7%)
Выравнивание                             : Соединение по промежуткам
Продолжительность промежутка             : 42  мс. (1,00 видеокадр)
Время предзагрузки промежутка            : 504  мс.

Аудио #2
Идентификатор                            : 2
Формат                                   : MPEG Audio
Версия формата                           : Version 1
Профиль формата                          : Layer 3
Настройки формата                        : Joint stereo / MS Stereo
Режим                                    : Joint stereo
Расширение режима                        : MS Stereo
Идентификатор кодека                     : 55
Идентификатор кодека/Подсказка           : MP3
Продолжительность                        : 42 м. 26 с.
Вид битрейта                             : Постоянный
Битрейт                                  : 128 Кбит/сек
Каналы                                   : 2 канала
Частота                                  : 48,0 КГц
Метод сжатия                             : С потерями
Размер потока                            : 38,9 Мбайт (7%)
Выравнивание                             : Соединение по промежуткам
Продолжительность промежутка             : 42  мс. (1,00 видеокадр)
Время предзагрузки промежутка            : 504  мс.

скриншот  скриншот  скриншот  
Внимание! Раздача ведётся путём добавления новых серий; при каждом добавлении создаётся новый торрент. Чтобы начать докачку новой серии, пользователям необходимо сделать следующее:
(1) остановить скачивание,
(2) удалить старый торрент у себя из клиента (старые серии удалять не надо),
(3) скачать новый торрент и запустить его у себя в клиенте вместо старого, при этом указать клиенту путь в старую папку куда и должно происходить скачивание новых серий.

Ваш клиент при этом должен произвести хеширование (проверку) старой папки (если не производит сам - помогите ему сделать это), и будет докачивать только те серии которых у вас ещё нет. Старые серии при этом не удаляются, а продолжают раздаваться!

Eсли вы уже удалили старые серии, то предотвратить повторную закачку старых серий можно, отжав галочку в соответствующих местах при запуске нового торрента. По возможности, желательно не удалять старые серии как можно дольше чтобы релизёр не столько продолжал раздавать старые серии, а смог сконцентрироваться на новых.
piratbit.pw



Скачать Явление через торрент https://i89.fastpic.ru/big/2019/0927/09/23e27ea045c3b20852d6bfa3218fb109.png Скачать фильм Явление через торрент бесплантно в хорошем качестве Описание: Фантастический триллер рассказывает о начальнице полиции, взявшей под опеку ребёнка, найденного на месте таинственной аварии. ... 10 10 1
Торрент: Зарегистрирован [2019-11-08 15:26] · скачан: 14 раз
Статус: √ проверено
Размер: 3.15 GB
Как cкачать? Как скачать Явление через торрент | qTorrent


>> Регистрируемся здесь <<






Отзывы и комментарии о схеме читаем и пишем здесь: ---> Отзывы и комментарии о схеме

Новые благодарочки в телеграм довольных пользователей:
скриншот   скриншот   скриншот   скриншот   скриншот
    Дорогой пользователь! Огромная просьба, поблагодарите релизера, оцените раздачу и оставьте свои комментарий, если Вы скачали Явление через торрент бесплатно! Внесите свою лепту в развитие PiratBit!
    Комментировать посты могут только пользователи прошедшие не сложную регистрацию
    Показать сообщения:    

    Явление через торрент
    Скачать бесплатно Явление
    Явление скачать торрент
    Явление смотреть онлайн
    Cкачать фильм Явление бесплатно
    Явление скачать торрент в хорошем качестве
    Явление смотреть онлайн бесплатно в хорошем качестве


    Вы не можете начинать темы
    Вы не можете отвечать на сообщения
    Вы не можете редактировать свои сообщения
    Вы не можете удалять свои сообщения
    Вы не можете голосовать в опросах
    Вы не можете прикреплять файлы к сообщениям
    Вы можете скачивать файлы