новый адрес
Мега распродажа FORZA HORIZON 4 ULTIMATE+ВСЕ DLC+ОНЛАЙН всего за 499р. 349 руб. (супер цена). Внимание количество ограничено!!!

iTunes

1+1

iTunes

мы

iTunes

1

iTunes

Чернобыль

iTunes

Ральф против интернета

Лицензия

ПШазам

Лицензия

Оно 2

Лицензия

30
pack

ВАЖНО

!!Акция!!

Alien_RageХит недели

RePack

Resident Evil 21

ИГРА 18+

pack

RePack

jed

!!Акция!!

Alien_Rage

RePack

fifa19

RePack

Assassins Creed: Odyssey

RePack

NEED FOR SPEED™ PAYBACK

3 сезон

9 сезон

Бесстыжие 9 сезон

Все сериалы

все сериалы на PB.wtf

RePack

FAR CRY 5
Ребята, катастрофически не хватает 1900р. для оплаты серверов за Октябрь (всвязи с блокировками трафик упал в 3 раза), 1-2р., выручайте.
  

Калейдоскоп ужасов / Creepshow / Сезон: 1 / Серии: 1-6 из 6 (Дэвид Брукнер, Джон Харрисон, Грег Никотеро) [2019, ужасы, WEB-DLRip-AVC] MVO [NewStudio] piratbit.pw

Калейдоскоп ужасов через торрент piratbit.pw

Раздают: 1 [ 0 KB/s ]
Размер: 4.36 GB | Добавлен: 12 д. назад | Торрент скачан:18 раз
Скачать  

08-11-2019 14:37 Калейдоскоп ужасов Скачать торрент  

Калейдоскоп ужасов / Creepshow Год выпуска: 2019
Страна: США
Жанр: ужасы
Продолжительность: ~00:45:00
Перевод: Профессиональный (многоголосый закадровый) | NewStudio
Субтитры: русские (форсированные, полные), английские

Режиссёр: Дэвид Брукнер, Джон Харрисон, Грег Никотеро, Роксанна Бенжамин, Том Савини

В ролях: Ханна Бэйрфут, Брюс Дэвисон, Логан Аллен, Дэвид Аркетт, Эдриенн Барбо, Тобин Белл, Биг Бой, Нельсон Бонилья, Трэйси Боннер, Мэдисон Бейли, Джесси Бойд

Описание: «Калейдоскоп ужасов» возвращается с размахом, на этот раз не на большом экране, а на Shudder, молодом потоковом сервисе, принадлежащем кабельному каналу AMC, который и посадил исполнительного продюсера «Ходячих мертвецов» и легендарного маэстро эффектов Грега Никотеро в кресло режиссера и исполнительного продюсера нового сериала. Сериал будет представлять собой антологию не связанных между собой жутких рассказов и черных комедий, объединенных в один сериал.



Качество: WEB-DLRip-AVC / WEB-DL 1080p
Формат: MKV

Видео: MPEG-4 AVC, 960x540 (16:9), 23.976 fps, ~1900 kbps avg, 0.153 bit/pixel
Аудио 1: 48 kHz, AC3 Dolby Digital, 2/0 (L,R) ch, ~192 kbps avg NewStudio
Аудио 2: 48 kHz, AC3 Dolby Digital, 2/0 (L,R) ch, ~192 kbps avg Original


Реклама: нет
Complete name               : D:\Раздача\Creepshow (2019) S01\Creepshow (2019) S01E01 RGzsRutracker_ivanes.mkv
Format                      : Matroska
Format version              : Version 2
File size                   : 767 MiB
Duration                    : 45 min 51 s
Overall bit rate            : 2 337 kb/s
Movie name                  : Creepshow (2019) S01E01 RGzsRutracker_ivanes
Encoded date                : UTC 2019-10-06 10:43:14
Writing application         : mkvmerge v4.4.0 ('Die Wiederkehr') сборка от Jan  3 2011 21:40:45
Writing library             : libebml v1.0.0 + libmatroska v1.0.0
Cover                       : Yes
Attachments                 : cover.jpg

Video
ID                          : 1
Format                      : AVC
Format/Info                 : Advanced Video Codec
Format profile              : High@L4.1
Format settings             : CABAC / 14 Ref Frames
Format settings, CABAC      : Yes
Format settings, Reference  : 14 frames
Codec ID                    : V_MPEG4/ISO/AVC
Duration                    : 45 min 51 s
Bit rate                    : 1 907 kb/s
Width                       : 960 pixels
Height                      : 540 pixels
Display aspect ratio        : 16:9
Frame rate mode             : Constant
Frame rate                  : 23.976 (24000/1001) FPS
Color space                 : YUV
Chroma subsampling          : 4:2:0
Bit depth                   : 8 bits
Scan type                   : Progressive
Bits/(Pixel*Frame)          : 0.153
Stream size                 : 626 MiB (82%)
Title                       : Rip by ivanes
Writing library             : x264 core 158 r2984+49 6932f4a t_mod_New [0-bit@all X86]
Encoding settings           : cabac=1 / ref=14 / deblock=1:-3:-3 / analyse=0x3:0x113 / me=umh / subme=8 / psy=1 / fade_compensate=0.00 / psy_rd=1.00:0.00 / mixed_ref=1 / me_range=32 / chroma_me=1 / trellis=2 / 8x8dct=1 / cqm=0 / deadzone=21,11 / fast_pskip=0 / chroma_qp_offset=-2 / threads=12 / lookahead_threads=4 / sliced_threads=0 / nr=0 / decimate=1 / interlaced=0 / bluray_compat=0 / constrained_intra=0 / fgo=0 / bframes=14 / b_pyramid=2 / b_adapt=2 / b_bias=0 / direct=1 / weightb=1 / open_gop=0 / weightp=2 / keyint=240 / keyint_min=23 / scenecut=40 / intra_refresh=0 / rc_lookahead=60 / rc=crf / mbtree=0 / crf=18.2000 / qcomp=0.60 / qpmin=0:0:0 / qpmax=69:69:69 / qpstep=4 / vbv_maxrate=50000 / vbv_bufsize=62500 / crf_max=0.0 / nal_hrd=none / filler=0 / ip_ratio=1.40 / pb_ratio=1.30 / aq=1:1.00 / aq-sensitivity=10.00 / aq-factor=1.00:1.00:1.00 / aq2=0 / aq3=0
Default                     : Yes
Forced                      : No
Statistics Tags Issue       : mkvmerge v29.0.0 ('Like It Or Not') 64-bit 2019-10-04 19:34:21 / mkvmerge v4.4.0 ('Die Wiederkehr') сборка от Jan  3 2011 21:40:45 2019-10-06 10:43:14
FromStats_BitRate           : 1950858
FromStats_Duration          : 00:45:51.791000000
FromStats_FrameCount        : 65977
FromStats_StreamSize        : 671044365

Audio #1
ID                          : 2
Format                      : AC-3
Format/Info                 : Audio Coding 3
Commercial name             : Dolby Digital
Codec ID                    : A_AC3
Duration                    : 45 min 51 s
Bit rate mode               : Constant
Bit rate                    : 192 kb/s
Channel(s)                  : 2 channels
Channel layout              : L R
Sampling rate               : 48.0 kHz
Frame rate                  : 31.250 FPS (1536 SPF)
Bit depth                   : 16 bits
Compression mode            : Lossy
Stream size                 : 63.0 MiB (8%)
Title                       : NewStudio
Language                    : Russian
Service kind                : Complete Main
Default                     : Yes
Forced                      : No

Audio #2
ID                          : 3
Format                      : AC-3
Format/Info                 : Audio Coding 3
Commercial name             : Dolby Digital
Codec ID                    : A_AC3
Duration                    : 45 min 51 s
Bit rate mode               : Constant
Bit rate                    : 192 kb/s
Channel(s)                  : 2 channels
Channel layout              : L R
Sampling rate               : 48.0 kHz
Frame rate                  : 31.250 FPS (1536 SPF)
Bit depth                   : 16 bits
Compression mode            : Lossy
Stream size                 : 63.0 MiB (8%)
Title                       : Original
Language                    : English
Service kind                : Complete Main
Default                     : No
Forced                      : No

Text #1
ID                          : 4
Format                      : UTF-8
Codec ID                    : S_TEXT/UTF8
Codec ID/Info               : UTF-8 Plain Text
Title                       : Forced
Language                    : Russian
Default                     : Yes
Forced                      : No

Text #2
ID                          : 5
Format                      : UTF-8
Codec ID                    : S_TEXT/UTF8
Codec ID/Info               : UTF-8 Plain Text
Title                       : Full
Language                    : Russian
Default                     : No
Forced                      : No

Text #3
ID                          : 6
Format                      : UTF-8
Codec ID                    : S_TEXT/UTF8
Codec ID/Info               : UTF-8 Plain Text
Title                       : Full
Language                    : English
Default                     : No
Forced                      : No
скриншот  скриншот  скриншот  скриншот  скриншот  
piratbit.pw



Скачать Калейдоскоп ужасов через торрент https://i90.fastpic.ru/big/2019/1015/85/0efd65fb5de9cecd9f6aee0d9cc4b585.jpg Скачать фильм Калейдоскоп ужасов через торрент бесплантно в хорошем качестве Описание: «Калейдоскоп ужасов» возвращается с размахом, на этот раз не на большом экране, а на Shudder, молодом потоковом сервисе, ... 10 10 3
Торрент: Зарегистрирован [2019-11-08 14:37] · скачан: 18 раз
Статус: √ проверено
Размер: 4.36 GB
Как cкачать? Как скачать Калейдоскоп ужасов через торрент | qTorrent

% Раздел Тема Автор DL S | L
Зарубежные сериалы [ 4.07 GB ] Калейдоскоп ужасов / Creepshow / Сезон: 1 / Серии: 1-6 из 6 [2019 WEB-DLRip] MVO [TVShows] bober100 Скачать
4 | 0
Зарубежные сериалы [ 16.9 GB ] Калейдоскоп ужасов / Creepshow / Сезон: 1 / Серии: 1-6 из 6 [2019 WEBRip 1080p] MVO [NewStudio] bober100 Скачать
1 | 0
Зарубежные сериалы [ 16.9 GB ] Калейдоскоп ужасов / Creepshow / Сезон: 1 / Серии: 1-6 из 6 [2019 WEB-DL 1080p] MVO [TVShows] bober100 Скачать
1 | 0
Зарубежные сериалы [ 7.63 GB ] Калейдоскоп ужасов / Creepshow / Сезон: 1 / Серии: 1-6 из 6 [2019 WEB-DL 720p] MVO [TVShows] bober100 Скачать
2 | 1
Зарубежные сериалы [ 8.16 GB ] Калейдоскоп ужасов / Creepshow / Сезон: 1 / Серия: 1-6 из 6 [2019 WEB-DL 720p] 3xMVO [NewStudio Jaskier HDRezka Studio] bober100 Скачать
2 | 0
Зарубежные сериалы [ 3.7 GB ] Калейдоскоп ужасов / Creepshow / Сезон: 1 / Серии: 1-6 из 6 [2019 WEB-DLRip] [MVO] killermax2013 Скачать
1 | 0
Зарубежные сериалы [ 16.84 GB ] Калейдоскоп ужасов / Creepshow / Сезон: 1 / Серии: 1-6 из 6 [2019 WEB-DL 1080p] MVO [Jaskier] bober100 Скачать
1 | 1


>> Регистрируемся здесь <<






Отзывы и комментарии о схеме читаем и пишем здесь: ---> Отзывы и комментарии о схеме

Новые благодарочки в телеграм довольных пользователей:
скриншот   скриншот   скриншот   скриншот   скриншот
    Дорогой пользователь! Огромная просьба, поблагодарите релизера, оцените раздачу и оставьте свои комментарий, если Вы скачали Калейдоскоп ужасов через торрент бесплатно! Внесите свою лепту в развитие PiratBit!
    Комментировать посты могут только пользователи прошедшие не сложную регистрацию
    Показать сообщения:    

    Калейдоскоп ужасов через торрент
    Скачать бесплатно Калейдоскоп ужасов
    Калейдоскоп ужасов скачать торрент
    Калейдоскоп ужасов смотреть онлайн
    Cкачать фильм Калейдоскоп ужасов бесплатно
    Калейдоскоп ужасов скачать торрент в хорошем качестве
    Калейдоскоп ужасов смотреть онлайн бесплатно в хорошем качестве


    Вы не можете начинать темы
    Вы не можете отвечать на сообщения
    Вы не можете редактировать свои сообщения
    Вы не можете удалять свои сообщения
    Вы не можете голосовать в опросах
    Вы не можете прикреплять файлы к сообщениям
    Вы можете скачивать файлы