новый адрес
Мега распродажа FORZA HORIZON 4 ULTIMATE+ВСЕ DLC+ОНЛАЙН всего за 499р. 349 руб. (супер цена). Внимание количество ограничено!!!

iTunes

1+1

iTunes

мы

iTunes

1

iTunes

Чернобыль

iTunes

Ральф против интернета

Лицензия

ПШазам

Лицензия

Оно 2

Лицензия

30
pack

ВАЖНО

!!Акция!!

Alien_RageХит недели

RePack

Resident Evil 21

ИГРА 18+

pack

RePack

jed

!!Акция!!

Alien_Rage

RePack

fifa19

RePack

Assassins Creed: Odyssey

RePack

NEED FOR SPEED™ PAYBACK

3 сезон

9 сезон

Бесстыжие 9 сезон

Все сериалы

все сериалы на PB.wtf

RePack

FAR CRY 5
Ребята, катастрофически не хватает 1900р. для оплаты серверов за Октябрь (всвязи с блокировками трафик упал в 3 раза), 1-2р., выручайте.
  

Миссии / Missions / Сезон: 1 / Серии: 1-10 из 10 (Жюльен Лякомб) [2017, Фантастика, WEB-DLRip] MVO [TVShows] piratbit.pw

Миссии через торрент piratbit.pw

Размер: 2.72 GB | Добавлен: 12 д. назад | Торрент скачан:23 раза
Скачать  

08-11-2019 14:24 Миссии Скачать торрент  

Миссии / Missions
Год выпуска: 2017
Страна: Франция
Жанр: Фантастика
Продолжительность: ~ 00:22:00
Перевод: Профессиональный (многоголосый) | TVShows
Субтитры: Английские (hardsub)

Режиссер: Жюльен Лякомб

rating

В ролях: Хелена Вивс, Клементе Обер, Матиа Млекюз, Жан-Туссен Бернард, Джиорджия Синикорни, Коме Левин, Эйдрианна Градзьел, Арбен Байрактарай, Винсент Лондез

Описание: Первый пилотируемый полет на Марс прошел успешно. В команде только лучшие — первоклассные космонавты и девушка-психолог, отвечающая за психическое здоровье экипажа. Однако при возвращении на Землю что-то пошло не так.

Качество: WEB-DLRip
Формат: AVI

Видео: XviD, ~ 1500 Кбит/с, 720х272
Аудио: Русский (AC3, 2 ch, 192 Кбит/с)
скриншот  скриншот  скриншот  скриншот  скриншот  

Общее
Полное имя : C:\Missions.S01.400p.TVShows\Missions.S01E01.XviD.TVShows.avi
Формат : AVI
Формат/Информация : Audio Video Interleave
Размер файла : 335 Мбайт
Продолжительность : 26 м. 34 с.
Общий поток : 1764 Кбит/сек
Программа кодирования : Lavf56.36.100

Видео
Идентификатор : 0
Формат : xvid
Идентификатор кодека : xvid
Продолжительность : 26 м. 34 с.
Битрейт : 1560 Кбит/сек
Ширина : 720 пикселей
Высота : 272 пикселя
Соотношение сторон : 2,647
Частота кадров : 29,970 (30000/1001) кадров/сек
Тип развёртки : Прогрессивная
Бит/(Пиксели*Кадры) : 0.266
Размер потока : 297 Мбайт (88%)

Аудио
Идентификатор : 1
Формат : AC-3
Формат/Информация : Audio Coding 3
Коммерческое название : Dolby Digital
Идентификатор кодека : 2000
Продолжительность : 26 м. 34 с.
Вид битрейта : Постоянный
Битрейт : 192 Кбит/сек
Каналы : 2 канала
ChannelLayout : L R
Частота : 48,0 КГц
Частота кадров : 31,250 кадров/сек (1536 SPF)
Битовая глубина : 16 бит
Метод сжатия : С потерями
Размер потока : 36,5 Мбайт (11%)
Выравнивание : Соединение по промежуткам
Продолжительность промежутка : 32 мс. (0,96 видеокадр)
Заголовок : TVShows
ServiceKind/String : Complete Main

piratbit.pw



Скачать Миссии через торрент http://i96.fastpic.ru/big/2017/0705/f4/2debe2ecb537eab131f100ee570b6cf4.jpg Скачать фильм Миссии через торрент бесплантно в хорошем качестве Описание: Первый пилотируемый полет на Марс прошел успешно. В команде только лучшие — первоклассные космонавты и девушка-психолог, ... 10 10 3
Торрент: Зарегистрирован [2019-11-08 14:24] · скачан: 23 раз
Статус: √ проверено
Размер: 2.72 GB
Как cкачать? Как скачать Миссии через торрент | qTorrent

% Раздел Тема Автор DL S | L
Зарубежные сериалы [ 5.45 GB ] Миссии / Missions / Сезон: 1 / Серии: 1-10 из 10 [2017 WEB-DL 720p] MVO [TVShows] bober100 Скачать
1 | 0
Зарубежные сериалы [ 8.88 GB ] Миссии / Missions / Сезон: 1 / Серии: 1-10 из 10 [2017 WEB-DL 1080p] MVO [TVShows] bober100 Скачать
2 | 0
Зарубежные сериалы [ 2.82 GB ] Миссии / Missions / Сезон: 1 / Серии 1-10 из 10 [2017 HDTVRip] MVO [Sunshine Studio] GEKADOL Скачать
1 | 0


>> Регистрируемся здесь <<






Отзывы и комментарии о схеме читаем и пишем здесь: ---> Отзывы и комментарии о схеме

Новые благодарочки в телеграм довольных пользователей:
скриншот   скриншот   скриншот   скриншот   скриншот
    Дорогой пользователь! Огромная просьба, поблагодарите релизера, оцените раздачу и оставьте свои комментарий, если Вы скачали Миссии через торрент бесплатно! Внесите свою лепту в развитие PiratBit!
    Комментировать посты могут только пользователи прошедшие не сложную регистрацию
    Показать сообщения:    

    Миссии через торрент
    Скачать бесплатно Миссии
    Миссии скачать торрент
    Миссии смотреть онлайн
    Cкачать фильм Миссии бесплатно
    Миссии скачать торрент в хорошем качестве
    Миссии смотреть онлайн бесплатно в хорошем качестве


    Вы не можете начинать темы
    Вы не можете отвечать на сообщения
    Вы не можете редактировать свои сообщения
    Вы не можете удалять свои сообщения
    Вы не можете голосовать в опросах
    Вы не можете прикреплять файлы к сообщениям
    Вы можете скачивать файлы