Ссылка на приватное зеркало всего за 1$. Внимание количество ограничено!!!

OK

1+1

iTunes

мы

OK

1

WEB-DLRip

Джокер

Пифагор

Ведьмак / The Witcher сериал

Лицензия

ПШазам

ОК

Оно 2

iTunes

30
pack

Вам бонус

ВАЖНО

!!Акция!!

Alien_RageХит недели

RePack

Resident Evil 21

ИГРА 18+

pack

RePack

jed

RePack

fifa19

RePack

Assassins Creed: Odyssey

RePack

NEED FOR SPEED™ PAYBACK

4 сезон

9 сезон

Бесстыжие 9 сезон

Все сериалы

все сериалы на PB.wtf

RePack

FAR CRY 5
  

Доктор Сон / Doctor Sleep (Майк Флэнеган) [2019, Ужасы, фэнтези, триллер, драма, WEB-DL 720p] [Театральная версия] DUB (rus, ukr) [iTunes] piratbit.pw

Доктор Сон через торрент piratbit.pw

Раздают: 10 [ 9 MB/s ] Качают: 4 [ 0 KB/s ]
Размер: 4.13 GB | Добавлен: 1 ч. 56 мин. назад | Торрент скачан:9 раз
Скачать  

08-11-2019 10:52 Доктор Сон Скачать торрент  

Доктор Сон | Doctor Sleep
Год выпуска: 2019
Страна: США, Великобритания
Студия: Warner Bros., Intrepid Pictures, Vertigo Entertainment
Жанр: Ужасы, фэнтези, триллер, драма
Продолжительность: 02:31:57
Перевод: Дублированное | iTunes
Субтитры: Русские (Forced, full), украинские (Forced), английские

Режиссер: Майк Флэнеган

rating

В ролях: Юэн Макгрегор, Ребекка Фергюсон, Дэнни Ллойд, Карел Стрёйкен, Джейкоб Тремблей, Эмили Элин Линд, Зан Маккларнон, Клифф Кёртис, Брюс Гринвуд, Александра Эссоу

Описание: Прошло много лет с тех пор, как мальчик-ясновидец Дэнни Торранс пережил кошмарный сезон в отеле «Оверлук», где стал свидетелем безумия и гибели своего отца. Повзрослев, но не оправившись от детской травмы, Дэнни ведёт жизнь маргинала-алкоголика. С ним устанавливает связь другая «сияющая» девочка, Абра. Ей потребуется помощь Дэнни, чтобы не стать жертвой так называемого «Истинного Узла» - группы охотников за одарёнными детьми.

Качество: WEB-DL 720p
Формат: MKV

Видео: MPEG-4 AVC, 1280x692, 6547 Kbit/s, 23.976 fps
Аудио #01: 48 kHz, AC3, 5.1, 384 Kbps | iTunes | RUS |
Аудио #02: 48 kHz, AC3, 2.0, 192 Kbps | iTunes | UKR |
Аудио #03: 48 kHz, E-AC3, 5.1, 640 Kbps | Оригинал | ENG |
скриншот  скриншот  скриншот  скриншот  скриншот  

General
Unique ID : 307041680430175478744846227545226363644 (0xE6FE139F6F8785BB8338A0CEF0BE42FC)
Complete name : E:Video111Doctor.Sleep.2019.AMZN.WEB-DL.720p.seleZen.mkv
Format : Matroska
Format version : Version 4
File size : 4.13 GiB
Duration : 2 h 31 min
Overall bit rate : 3 895 kb/s
Movie name : Doctor Sleep 2019 from селезень
Encoded date : UTC 2020-01-23 21:04:16
Writing application : mkvmerge v40.0.0 ('Old Town Road + Pony') 64-bit
Writing library : libebml v1.3.9 + libmatroska v1.5.2

Video
ID : 1
Format : AVC
Format/Info : Advanced Video Codec
Format profile : High@L3.1
Format settings : CABAC / 4 Ref Frames
Format settings, CABAC : Yes
Format settings, Reference : 4 frames
Codec ID : V_MPEG4/ISO/AVC
Duration : 2 h 31 min
Bit rate mode : Constant
Bit rate : 2 676 kb/s
Nominal bit rate : 6 000 kb/s
Width : 1 280 pixels
Height : 692 pixels
Display aspect ratio : 1.85:1
Frame rate mode : Constant
Frame rate : 23.976 (24000/1001) FPS
Color space : YUV
Chroma subsampling : 4:2:0
Bit depth : 8 bits
Scan type : Progressive
Bits/(Pixel*Frame) : 0.127
Stream size : 2.84 GiB (69%)
Language : English
Default : Yes
Forced : No
Color range : Limited
Color primaries : BT.709
Transfer characteristics : BT.709
Matrix coefficients : BT.709

Audio #1
ID : 2
Format : AC-3
Format/Info : Audio Coding 3
Commercial name : Dolby Digital
Codec ID : A_AC3
Duration : 2 h 31 min
Bit rate mode : Constant
Bit rate : 384 kb/s
Channel(s) : 6 channels
Channel layout : L R C LFE Ls Rs
Sampling rate : 48.0 kHz
Frame rate : 31.250 FPS (1536 SPF)
Compression mode : Lossy
Stream size : 417 MiB (10%)
Title : iTunes
Language : Russian
Service kind : Complete Main
Default : Yes
Forced : Yes

Audio #2
ID : 3
Format : AC-3
Format/Info : Audio Coding 3
Commercial name : Dolby Digital
Codec ID : A_AC3
Duration : 2 h 31 min
Bit rate mode : Constant
Bit rate : 192 kb/s
Channel(s) : 2 channels
Channel layout : L R
Sampling rate : 48.0 kHz
Frame rate : 31.250 FPS (1536 SPF)
Compression mode : Lossy
Stream size : 209 MiB (5%)
Title : iTunes
Language : Ukrainian
Service kind : Complete Main
Default : No
Forced : No

Audio #3
ID : 4
Format : E-AC-3
Format/Info : Enhanced AC-3
Commercial name : Dolby Digital Plus
Codec ID : A_EAC3
Duration : 2 h 31 min
Bit rate mode : Constant
Bit rate : 640 kb/s
Channel(s) : 6 channels
Channel layout : L R C LFE Ls Rs
Sampling rate : 48.0 kHz
Frame rate : 31.250 FPS (1536 SPF)
Compression mode : Lossy
Stream size : 696 MiB (16%)
Title : Original
Language : English
Service kind : Complete Main
Default : No
Forced : No

Text #1
ID : 5
Format : UTF-8
Codec ID : S_TEXT/UTF8
Codec ID/Info : UTF-8 Plain Text
Duration : 2 h 14 min
Bit rate : 3 b/s
Count of elements : 42
Stream size : 3.85 KiB (0%)
Title : Forced
Language : Russian
Default : Yes
Forced : Yes

Text #2
ID : 6
Format : UTF-8
Codec ID : S_TEXT/UTF8
Codec ID/Info : UTF-8 Plain Text
Duration : 2 h 25 min
Bit rate : 60 b/s
Count of elements : 1656
Stream size : 64.7 KiB (0%)
Title : Full
Language : Russian
Default : No
Forced : No

Text #3
ID : 7
Format : UTF-8
Codec ID : S_TEXT/UTF8
Codec ID/Info : UTF-8 Plain Text
Duration : 2 h 14 min
Bit rate : 1 b/s
Count of elements : 43
Stream size : 1.74 KiB (0%)
Title : Forced
Language : Ukrainian
Default : No
Forced : No

Text #4
ID : 8
Format : UTF-8
Codec ID : S_TEXT/UTF8
Codec ID/Info : UTF-8 Plain Text
Duration : 2 h 25 min
Bit rate : 37 b/s
Count of elements : 1693
Stream size : 39.7 KiB (0%)
Title : Full
Language : English
Default : No
Forced : No

Text #5
ID : 9
Format : UTF-8
Codec ID : S_TEXT/UTF8
Codec ID/Info : UTF-8 Plain Text
Duration : 2 h 25 min
Bit rate : 42 b/s
Count of elements : 1943
Stream size : 45.4 KiB (0%)
Title : SDH
Language : English
Default : No
Forced : No

piratbit.pw



Скачать Доктор Сон через торрент https://img15.lostpic.net/2020/01/23/85ad0f23a28ba8c79284d934c3daee87.jpg Скачать фильм Доктор Сон через торрент бесплантно в хорошем качестве Описание: Прошло много лет с тех пор, как мальчик-ясновидец Дэнни Торранс пережил кошмарный сезон в отеле «Оверлук», где стал свидетелем ... 8.5 10 6
Торрент: Зарегистрирован [2020-01-23 21:11] · скачан: 9 раз
Статус: √ проверено
Размер: 4.13 GB
Как cкачать? Как скачать Доктор Сон через торрент | qTorrent

% Раздел Тема Автор DL S | L
Фильмы без перевода [ 6.95 GB ] Доктор Сон / Doctor Sleep [2019 г WEB-DL 1080p] [Режиссерская версия / Directors Cut] [ENG] killermax2013 Скачать
4 | 0
Фильмы (WEB-DL 720p, 1080p) [ 8.24 GB ] Доктор Сон / Doctor Sleep [2019 WEB-DL 1080p] [Театральная версия] DUB bober100 Скачать
18 | 14
Фильмы 2019-2020 [DVDrip, WEB-DLRip, HDrip] (DUB, MVO) [ 2.18 GB ] Доктор Сон / Doctor Sleep [2019 WEB-DLRip] [Театральная версия] bober100 Скачать
10 | 4
Фильмы 2019-2020 [DVDrip, WEB-DLRip, HDrip] (DUB, MVO) [ 1.46 GB ] Доктор Сон / Doctor Sleep [2019 WEB-DLRip] [Театральная версия] bober100 Скачать
11 | 3
x Фильмы 2019-2020 (Звук TS, Cam, VO, DVO) [ 1.44 GB ] Доктор Сон / Doctor Sleep [2019 WEBRip] DUB [Line] bober100 Скачать
14 | 0

28-11-2019 20:33  

Отключить всю рекламу на сайте

    Дорогой пользователь! Огромная просьба, поблагодарите релизера, оцените раздачу и оставьте свои комментарий, если Вы скачали Доктор Сон через торрент бесплатно! Внесите свою лепту в развитие PiratBit!
    Комментировать посты могут только пользователи прошедшие не сложную регистрацию
    Показать сообщения:    

    Доктор Сон через торрент
    Скачать бесплатно Доктор Сон
    Доктор Сон скачать торрент
    Доктор Сон смотреть онлайн
    Cкачать фильм Доктор Сон бесплатно
    Доктор Сон скачать торрент в хорошем качестве
    Доктор Сон смотреть онлайн бесплатно в хорошем качестве


    Вы не можете начинать темы
    Вы не можете отвечать на сообщения
    Вы не можете редактировать свои сообщения
    Вы не можете удалять свои сообщения
    Вы не можете голосовать в опросах
    Вы не можете прикреплять файлы к сообщениям
    Вы можете скачивать файлы