Ссылка на приватное зеркало всего за 1$. Внимание количество ограничено!!!

iTunes

iTunes

iTunes

1

iTunes

iTunes

iTunes

iTunes

iTunes

30
pack

$ от Little Big

ВАЖНО

!!Акция!!

Alien_RageХит недели

RePack

Resident Evil 21

ИГРА 18+

pack

RePack

jed

!!Акция!!

Alien_Rage

RePack

fifa19

RePack

Assassins Creed: Odyssey

RePack

NEED FOR SPEED™ PAYBACK

4 сезон

9 сезон

Бесстыжие 9 сезон

Все сериалы

все сериалы на PB.wtf

RePack

FAR CRY 5
  

Посыльный / Message Man (Кори Пирсон) [2018, боевик, триллер, криминал, HDRip, Профессиональный (многоголосый)] [HDrezka Studio] piratbit.pw

Посыльный через торрент piratbit.pw

Раздают: 1 [ 0 KB/s ]
Размер: 1.38 GB | Добавлен: 6 мес. назад | Торрент скачан:194 раза
Скачать  

07-11-2019 21:12 Посыльный Скачать торрент  

Посыльный / Message Man

Год выпуска: 2018
Страна: Индонезия, Австралия / HJ Production, Rhythmic Films, Citra Entertainment Group
Жанр: боевик, триллер, криминал
Продолжительность: 01:30:10
Перевод: Профессиональный (многоголосый,закадровый) HDrezka Studio
Режиссер: Кори Пирсон
rating
В ролях: Пол О’Брайэн, Захира Алека Ашари, Альфридиус Годфред, Марио Ирвинся, Агни Пратиштха Кусвардоно, Рики Мартин, Валентайн Пайен, Гэри Плант, Эрма Пратма, Пэтти Сандя
Описание: Приняв решение покончить с криминальным прошлым, бывший наемный убийца оседает вблизи побережья Индонезии, используя в качестве жилья маленькую яхту. Скромное и одинокое существование помогает Райану восстановить душевное спокойствие, но однажды его покой нарушает знакомство с задорным мальчиком Дони, которое быстро перерастает в дружбу. Однако вскоре размеренной жизни Райана приходит конец, когда Дони оказывается при смерти из-за действий местных бандитов. Готовясь отомстить за лучшего друга, бывший наемник неожиданно узнает, что индонезийские головорезы связаны с врагом из его прошлого...
Доп. информация: Без рекламы!
Качество: HDRip
Формат: AVI
Видео кодек: XviD
Аудио кодек: AC3
Видео: 688х288, 24.000 fps, 1782 Кбит/с
Аудио#1: Russian: 192 Кбит/с, 2 ch, 48.0 KHz
Аудио#2: English: 192 Кбит/с, 2 ch, 48.0 KHz
Релиз от: HDrezka Studio

Общее
Полное имя :Message.Man.2018.1.36GB.HDrip.avi
Формат : AVI
Формат/Информация : Audio Video Interleave
Размер файла : 1,38 Гбайт
Продолжительность : 1 ч. 30 м.
Общий поток : 2181 Кбит/сек
Программа кодирования : VirtualDubMod 1.5.10.2 (build 2540/release)
Библиотека кодирования : VirtualDubMod build 2540/release

Видео
Идентификатор : 0
Формат : MPEG-4 Visual
Профиль формата : Advanced Simple@L5
Настройки формата : BVOP2
Параметр BVOP формата : 2
Параметр QPel формата : Нет
Параметр GMC формата : Без точки перехода
Параметр матрицы формата : Default (MPEG)
Режим смешивания : Сжатый битовый поток
Идентификатор кодека : XVID
Идентификатор кодека/Подсказка : XviD
Продолжительность : 1 ч. 30 м.
Битрейт : 1783 Кбит/сек
Ширина : 688 пикселей
Высота : 288 пикселей
Соотношение сторон : 2,40:1
Частота кадров : 23,976 (24000/1001) кадра/сек
Цветовое пространство : YUV
Субдискретизация насыщенности : 4:2:0
Битовая глубина : 8 бит
Тип развёртки : Прогрессивная
Метод сжатия : С потерями
Бит/(Пиксели*Кадры) : 0.375
Размер потока : 1,13 Гбайт (82%)
Библиотека кодирования : XviD 1.2.1 (UTC 2008-12-04)

Аудио #1
Идентификатор : 1
Формат : AC-3
Формат/Информация : Audio Coding 3
Коммерческое название : Dolby Digital
Идентификатор кодека : 2000
Продолжительность : 1 ч. 30 м.
Вид битрейта : Постоянный
Битрейт : 192 Кбит/сек
Каналы : 2 канала
ChannelLayout : L R
Частота : 48,0 КГц
Частота кадров : 31,250 кадров/сек (1536 SPF)
Метод сжатия : С потерями
Задержка видео : 4 с. 0 мс.
Размер потока : 124 Мбайт (9%)
Выравнивание : Разделение по промежуткам
Продолжительность промежутка : 42 мс. (1,00 видеокадр)
Время предзагрузки промежутка : 500 мс.
ServiceKind/String : Complete Main

Аудио #2
Идентификатор : 2
Формат : AC-3
Формат/Информация : Audio Coding 3
Коммерческое название : Dolby Digital
Идентификатор кодека : 2000
Продолжительность : 1 ч. 30 м.
Вид битрейта : Постоянный
Битрейт : 192 Кбит/сек
Каналы : 2 канала
ChannelLayout : L R
Частота : 48,0 КГц
Частота кадров : 31,250 кадров/сек (1536 SPF)
Метод сжатия : С потерями
Размер потока : 124 Мбайт (9%)
Выравнивание : Разделение по промежуткам
Продолжительность промежутка : 42 мс. (1,00 видеокадр)
Время предзагрузки промежутка : 500 мс.
ServiceKind/String : Complete Main

piratbit.pw



Скачать Посыльный через торрент http://pic1.kartinco.top/images/12/t54qn.jpg Скачать фильм Посыльный через торрент бесплантно в хорошем качестве Описание: Приняв решение покончить с криминальным прошлым, бывший наемный убийца оседает вблизи побережья Индонезии, используя в качестве ... 9.5 10 8
Торрент: Зарегистрирован [2019-11-07 21:12] · скачан: 194 раз
Статус: ∑ поглощено
Размер: 1.38 GB
Как cкачать? Как скачать Посыльный через торрент | qTorrent

% Раздел Тема Автор DL S | L
Фильмы 2018 [DVDrip, WEB-DLRip, HDrip] (DUB, MVO) [ 1.42 GB ] Посыльный / Мститель / Message Man [2018 BDRip] - Twi7ter Скачать
18 | 0
T Фильмы (Blu-ray, BD-Remux, HDDVD) [ 14.62 GB ] Посыльный / Message Man [2018 BD Remux 1080p] MVO [HDRezka Studio] bober100 Скачать
1 | 0
Фильмы [HD 720p, 1080p] (Хороший звук DUB, MVO) [ 7.15 GB ] Мститель / Посыльный / Message Man [2018 BDRip 1080p] bober100 Скачать
6 | 0
Фильмы 2018 [DVDrip, WEB-DLRip, HDrip] (DUB, MVO) [ 1.46 GB ] Мститель / Посыльный / Message Man [2018 BDRip] bober100 Скачать
4 | 0
Фильмы (WEB-DL 720p, 1080p) [ 3.8 GB ] Мститель / Посыльный / Message Man [2018 BDRip 720p] bober100 Скачать
2 | 0

28-11-2019 20:33  

Отключить всю рекламу на сайте

08-11-2019 00:38 Посыльный Скачать торрент  

Топик был перенесен из форума Оформление раздач (Кино, Видео и ТВ) в форум Фильмы 2018 [DVDrip, WEB-DLRip, HDrip] (DUB, MVO)


bober100piratbit.pw



20-04-2020 15:13 Посыльный Скачать торрент  

Топик был перенесен из форума Фильмы 2018 [DVDrip, WEB-DLRip, HDrip] (DUB, MVO) в форум Для поглощённых раздач

Причина переноса: Посыльный / Мститель / Message Man
bober100piratbit.pw



    Дорогой пользователь! Огромная просьба, поблагодарите релизера, оцените раздачу и оставьте свои комментарий, если Вы скачали Посыльный через торрент бесплатно! Внесите свою лепту в развитие PiratBit!
    Комментировать посты могут только пользователи прошедшие не сложную регистрацию
    Показать сообщения:    

    Посыльный через торрент
    Скачать бесплатно Посыльный
    Посыльный скачать торрент
    Посыльный смотреть онлайн
    Cкачать фильм Посыльный бесплатно
    Посыльный скачать торрент в хорошем качестве
    Посыльный смотреть онлайн бесплатно в хорошем качестве


    Вы не можете начинать темы
    Вы не можете отвечать на сообщения
    Вы не можете редактировать свои сообщения
    Вы не можете удалять свои сообщения
    Вы не можете голосовать в опросах
    Вы не можете прикреплять файлы к сообщениям
    Вы можете скачивать файлы