новый адрес пиратбит piratbit
Мега распродажа FORZA HORIZON 4 ULTIMATE+ВСЕ DLC+ОНЛАЙН всего за 499р. 349 руб. (супер цена). Внимание количество ограничено!!!

iTunes

1+1

iTunes

мы

iTunes

1

iTunes

Чернобыль

iTunes

Ральф против интернета

Лицензия

ПШазам

Лицензия

Игра престолов

Лицензия

30
pack

ВАЖНО

!!Акция!!

Alien_RageХит недели

RePack

Resident Evil 21

ИГРА 18+

pack

RePack

Metro:Exodus

!!Акция!!

Alien_Rage

RePack

fifa19

RePack

Assassins Creed: Odyssey

RePack

NEED FOR SPEED™ PAYBACK

3 сезон

9 сезон

Бесстыжие 9 сезон

Все сериалы

все сериалы на PB.wtf

RePack

FAR CRY 5
Ребята, катастрофически не хватает 1900р. для оплаты серверов за Октябрь (всвязи с блокировками трафик упал в 3 раза), 1-2р., выручайте.
  

Дикая Лига (Андрей Богатырев, Арт Камачо) [2019, приключения, боевик, WEB-DL 1080p] piratbit.pw

Дикая Лига через торрент piratbit.pw

Раздают: 25 [ 140 KB/s ]
Размер: 4.02 GB | Добавлен: 7 д. назад | Торрент скачан:207 раз
Скачать  

07-11-2019 05:32 Дикая Лига Скачать торрент  

Дикая Лига
Год выпуска: 2019
Страна: Россия
Производство: Кинокомпания «Союз Маринс Групп», Modern Age Productions
Жанр: приключения, боевик
Продолжительность: 01:50:53
Перевод: Не требуется
Субтитры: отсутствуют

Режиссер: Андрей Богатырев, Арт Камачо



В ролях: Владимир Яглыч, Аделина Голубенко-Гизатуллина, Иван Охлобыстин, Дмитрий Назаров, Евгений Коряковский, Олеся Судзиловская, Эдриан Пол, Уильям Шокли, Станислав Тикунов, Анатолий Гущин, Иван Михайловский, Вячеслав Шихалеев, Павел Абраменков, Денис Кузнецов, Антон Колесников, Мария Дубина, Михаил Мелин, Вилен Бабичев

Описание: Основанная на реальных событиях начала XX века история парня Варлама из низших социальных слоев, которому ради того, чтобы быть с любимой, пришлось покинуть родные края и начать жить в Москве. Проявившего себя в бою стенка на стенку парня замечает англичанин, владелец футбольного клуба, который предлагает ему попробовать силы в команде. Однако команда не принимает неотесанного бурлака с Волги. Тогда собравшись с силами, Варлам вместе с настоящим патриотом и увлеченным футболом купцом Балашовым создает первую народную команду и становится лидером, изменив при этом свою жизнь и жизнь окружающих. Благодаря Варламу и его команде футбол в России становится поистине народной игрой...

Качество: WEB-DL 1080p
Формат: MKV

Видео: 1920x804 (2.40:1), 24.000 fps, MPEG-4 AVC ~4 999 kbps avg
Аудио: 48.0 kHz, AC3 Dolby Digital, 2/0 (L,R) ch, ~192 kbps
скриншот  скриншот  скриншот  скриншот  скриншот  

General
Уникальный идентификатор : 190370550511859357735889469031185101795 (0x8F3808CCDE08EB71AFAA4CA3EABBB3E3)
Полное имя : Dikaya.liga.2019.WEB-DL.(1080p).Getty.mkv
Формат : Matroska
Версия формата : Version 4
Размер файла : 4,02 Гбайт
Продолжительность : 1 ч. 50 м.
Общий поток : 5193 Кбит/сек
Название фильма : Dikaya.liga.2019.WEB-DL.(1080p).Getty
Дата кодирования : UTC 2019-11-07 01:46:28
Программа кодирования : mkvmerge v7.8.0 ('River Man') 32bit built on Mar 27 2015 16:18:02
Библиотека кодирования : libebml v1.3.1 + libmatroska v1.4.2

Видео
Идентификатор : 1
Формат : AVC
Формат/Информация : Advanced Video Codec
Профиль формата : High@L4
Настройки формата : CABAC / 3 Ref Frames
Параметр CABAC формата : Да
Параметр RefFrames формата : 3 кадра
Идентификатор кодека : V_MPEG4/ISO/AVC
Продолжительность : 1 ч. 50 м.
Битрейт : 4999 Кбит/сек
Ширина : 1920 пикселей
Высота : 804 пикселя
Соотношение сторон : 2,40:1
Режим частоты кадров : Постоянный
Частота кадров : 24,000 кадра/сек
Цветовое пространство : YUV
Субдискретизация насыщенности : 4:2:0
Битовая глубина : 8 бит
Тип развёртки : Прогрессивная
Бит/(Пиксели*Кадры) : 0.135
Размер потока : 3,87 Гбайт (96%)
Default : Да
Forced : Нет
Цветовой диапазон : Limited
Основные цвета : BT.709
Характеристики трансфера : BT.709
Коэффициенты матрицы : BT.709

Аудио
Идентификатор : 2
Формат : AC-3
Формат/Информация : Audio Coding 3
Коммерческое название : Dolby Digital
Идентификатор кодека : A_AC3
Продолжительность : 1 ч. 50 м.
Вид битрейта : Постоянный
Битрейт : 192 Кбит/сек
Каналы : 2 канала
ChannelLayout : L R
Частота : 48,0 КГц
Частота кадров : 31,250 кадров/сек (1536 SPF)
Битовая глубина : 16 бит
Метод сжатия : С потерями
Размер потока : 152 Мбайт (4%)
Default : Да
Forced : Нет

piratbit.pw



Скачать Дикая Лига через торрент http://d.radikal.ru/d10/1911/28/978bf57847e8.jpg Скачать фильм Дикая Лига через торрент бесплантно в хорошем качестве Описание: Основанная на реальных событиях начала XX века история парня Варлама из низших социальных слоев, которому ради того, чтобы быть с ... 9.3 10 13
Торрент: Зарегистрирован [2019-11-07 05:32] · скачан: 207 раз
Статус: T временная
Размер: 4.02 GB
Как cкачать? Как скачать Дикая Лига через торрент | qTorrent

% Раздел Тема Автор DL S | L
T Наши новые фильмы 2018-2019 [ 1.46 GB ] Дикая Лига [2019 WEB-DLRip] bober100 Скачать
37 | 2


>> Регистрируемся здесь <<






Отзывы и комментарии о схеме читаем и пишем здесь: ---> Отзывы и комментарии о схеме

Новые благодарочки в телеграм довольных пользователей:
скриншот   скриншот   скриншот   скриншот   скриншот
    Дорогой пользователь! Огромная просьба, поблагодарите релизера, оцените раздачу и оставьте свои комментарий, если Вы скачали Дикая Лига через торрент бесплатно! Внесите свою лепту в развитие PiratBit!
    Комментировать посты могут только пользователи прошедшие не сложную регистрацию
    Показать сообщения:    

    Дикая Лига через торрент
    Скачать бесплатно Дикая Лига
    Дикая Лига скачать торрент
    Дикая Лига смотреть онлайн
    Cкачать фильм Дикая Лига бесплатно
    Дикая Лига скачать торрент в хорошем качестве
    Дикая Лига смотреть онлайн бесплатно в хорошем качестве


    Вы не можете начинать темы
    Вы не можете отвечать на сообщения
    Вы не можете редактировать свои сообщения
    Вы не можете удалять свои сообщения
    Вы не можете голосовать в опросах
    Вы не можете прикреплять файлы к сообщениям
    Вы можете скачивать файлы