новый адрес
Ссылка на приватное зеркало всего за 1$. Внимание количество ограничено!!!

iTunes

1+1

iTunes

мы

iTunes

1

iTunes

Чернобыль

iTunes

Ральф против интернета

Лицензия

ПШазам

Лицензия

Оно 2

Лицензия

30
pack

Вам бонус

ВАЖНО

!!Акция!!

Alien_RageХит недели

RePack

Resident Evil 21

ИГРА 18+

pack

RePack

jed

!!Акция!!

Alien_Rage

RePack

fifa19

RePack

Assassins Creed: Odyssey

RePack

NEED FOR SPEED™ PAYBACK

3 сезон

9 сезон

Бесстыжие 9 сезон

Все сериалы

все сериалы на PB.wtf

RePack

FAR CRY 5
Ребята, катастрофически не хватает 1900р. для оплаты серверов за Октябрь (всвязи с блокировками трафик упал в 3 раза), 1-2р., выручайте.
  

Присягнувшая тьме / The Convent (Пол Хайет) [2018 г., ужасы, история, HDRip, Дубляж iTunes] piratbit.pw

Присягнувшая тьме через торрент piratbit.pw

Раздают: 3 [ 0 KB/s ]
Размер: 1.45 GB | Добавлен: 15 д. назад | Торрент скачан:103 раза
Скачать  

07-11-2019 04:20 Присягнувшая тьме Скачать торрент  

Присягнувшая тьме / The Convent

Год выпуска: 2018
Страна: Великобритания / EnMar Productions, BCSM Enterprises, Sterling Pictures Ltd.
Жанр: ужасы, история
Продолжительность: 01:20:55
Перевод: Дубляж iTunes
Субтитры: Нет
Режиссер: Пол Хайет
rating
В ролях: Майкл Айронсайд, Рози Дэй, Клер Хиггинс, Ханна Артертон, Дилан Гвин, Киаран МакМенамин, Аня Марсон, Фредди Картер, Петра Брайант, Кэти Шеридан
Описание: В XVII веке молодая женщина Персефона предстает перед судом по обвинению в колдовстве, и как следствие — перед возможной казнью. Но девушку спасает вовремя вмешавшаяся преподобная мать, предложив осужденной провести оставшуюся жизнь в изолированном монастыре. Персефона думала, что в святом месте она посвятит себя молитвам и служению Господу, но по прибытии её начинают мучить страшные видения, а вместо очищения от грехов девушку ждет борьба за сохранение души.
Качество: HDRip
Формат: AVI
Видео кодек: XviD
Аудио кодек: AC3
Видео: 2175 Kb/s, 720x304
Аудио#1: AC3, 384 Kb/s (6 ch)


Общее
Полное имя : Присягнувшая тьме.2018.HDRip.1.45GB.avi
Формат : AVI
Формат/Информация : Audio Video Interleave
Размер файла : 1,45 Гбайт
Продолжительность : 1 ч. 20 м.
Общий поток : 2568 Кбит/сек
Программа кодирования : VirtualDubMod 1.5.10.3 | www.virtualdub-fr.org || (build 2550/release)
Библиотека кодирования : VirtualDubMod build 2550/release

Видео
Идентификатор : 0
Формат : MPEG-4 Visual
Профиль формата : Advanced Simple@L5
Настройки формата : BVOP1 / Custom Matrix
Параметр BVOP формата : 1
Параметр QPel формата : Нет
Параметр GMC формата : Без точки перехода
Параметр матрицы формата : Выборочная
Идентификатор кодека : XVID
Идентификатор кодека/Подсказка : XviD
Продолжительность : 1 ч. 20 м.
Битрейт : 2175 Кбит/сек
Ширина : 720 пикселей
Высота : 304 пикселя
Соотношение сторон : 2,35:1
Частота кадров : 24,000 кадра/сек
Цветовое пространство : YUV
Субдискретизация насыщенности : 4:2:0
Битовая глубина : 8 бит
Тип развёртки : Прогрессивная
Метод сжатия : С потерями
Бит/(Пиксели*Кадры) : 0.414
Размер потока : 1,23 Гбайт (85%)
Библиотека кодирования : XviD 73

Аудио
Идентификатор : 1
Формат : AC-3
Формат/Информация : Audio Coding 3
Коммерческое название : Dolby Digital
Идентификатор кодека : 2000
Продолжительность : 1 ч. 20 м.
Вид битрейта : Постоянный
Битрейт : 384 Кбит/сек
Каналы : 6 каналов
ChannelLayout : L R C LFE Ls Rs
Частота : 48,0 КГц
Частота кадров : 31,250 кадров/сек (1536 SPF)
Метод сжатия : С потерями
Размер потока : 222 Мбайт (15%)
Выравнивание : Разделение по промежуткам
Продолжительность промежутка : 42 мс. (1,00 видеокадр)
Время предзагрузки промежутка : 500 мс.
ServiceKind/String : Complete Main

piratbit.pw



Скачать Присягнувшая тьме через торрент http://pic1.kartinco.top/images/12/q578r.jpg Скачать фильм Присягнувшая тьме через торрент бесплантно в хорошем качестве Описание: В XVII веке молодая женщина Персефона предстает перед судом по обвинению в колдовстве, и как следствие — перед возможной казнью. ... 10 10 7
Торрент: Зарегистрирован [2019-11-07 04:20] · скачан: 103 раз
Статус: √ проверено
Размер: 1.45 GB
Как cкачать? Как скачать Присягнувшая тьме через торрент | qTorrent

% Раздел Тема Автор DL S | L
Фильмы [HD 720p, 1080p] (Хороший звук DUB, MVO) [ 6.3 GB ] Присягнувшая тьме / The Convent [2018 история BDRip 1080p] +MVO [HDrezka Studio] bober100 Скачать
3 | 0
Фильмы 2018 [DVDrip, WEB-DLRip, HDrip] (DUB, MVO) [ 1.42 GB ] Присягнувшая тьме / The Convent [2018 BDRip] - Twi7ter Скачать
16 | 1
Фильмы 2018 [DVDrip, WEB-DLRip, HDrip] (DUB, MVO) [ 745 MB ] Присягнувшая тьме / The Convent [2018 BDRip] - OlLanDGroup Skandar2019 Скачать
2 | 0
Фильмы 2018 [DVDrip, WEB-DLRip, HDrip] (DUB, MVO) [ 1.62 GB ] Присягнувшая тьме / The Convent [2018 история BDRip-AVC] +MVO [HDrezka Studio] bober100 Скачать
1 | 0
Фильмы [HD 720p, 1080p] (Хороший звук DUB, MVO) [ 3.46 GB ] Присягнувшая тьме / The Convent [2018 история BDRip 720p] +MVO [HDrezka Studio] bober100 Скачать
3 | 0
Фильмы 2018 [DVDrip, WEB-DLRip, HDrip] (DUB, MVO) [ 745 MB ] Присягнувшая тьме / The Convent [2018 BDRip-AVC] - OlLanDGroup Skandar2019 Скачать
2 | 0

07-11-2019 05:06 Присягнувшая тьме Скачать торрент  

Топик был перенесен из форума Оформление раздач (Кино, Видео и ТВ) в форум Фильмы 2018 [DVDrip, WEB-DLRip, HDrip] (DUB, MVO)


bober100piratbit.pw



    Дорогой пользователь! Огромная просьба, поблагодарите релизера, оцените раздачу и оставьте свои комментарий, если Вы скачали Присягнувшая тьме через торрент бесплатно! Внесите свою лепту в развитие PiratBit!
    Комментировать посты могут только пользователи прошедшие не сложную регистрацию
    Показать сообщения:    

    Присягнувшая тьме через торрент
    Скачать бесплатно Присягнувшая тьме
    Присягнувшая тьме скачать торрент
    Присягнувшая тьме смотреть онлайн
    Cкачать фильм Присягнувшая тьме бесплатно
    Присягнувшая тьме скачать торрент в хорошем качестве
    Присягнувшая тьме смотреть онлайн бесплатно в хорошем качестве


    Вы не можете начинать темы
    Вы не можете отвечать на сообщения
    Вы не можете редактировать свои сообщения
    Вы не можете удалять свои сообщения
    Вы не можете голосовать в опросах
    Вы не можете прикреплять файлы к сообщениям
    Вы можете скачивать файлы