новый адрес
Ссылка на приватное зеркало всего за 1$. Внимание количество ограничено!!!

iTunes

1+1

iTunes

мы

iTunes

1

iTunes

Чернобыль

iTunes

Ральф против интернета

Лицензия

ПШазам

Лицензия

Оно 2

Лицензия

30
pack

Вам бонус

ВАЖНО

!!Акция!!

Alien_RageХит недели

RePack

Resident Evil 21

ИГРА 18+

pack

RePack

jed

!!Акция!!

Alien_Rage

RePack

fifa19

RePack

Assassins Creed: Odyssey

RePack

NEED FOR SPEED™ PAYBACK

3 сезон

9 сезон

Бесстыжие 9 сезон

Все сериалы

все сериалы на PB.wtf

RePack

FAR CRY 5
Ребята, катастрофически не хватает 1900р. для оплаты серверов за Октябрь (всвязи с блокировками трафик упал в 3 раза), 1-2р., выручайте.
  

Посыльный / Message Man (Кори Пирсон) [2018, боевик, триллер, криминал, BDRip 1080p] MVO [HDRezka Studio] piratbit.pw

Посыльный через торрент piratbit.pw

Раздают: 5 [ 10 KB/s ]
Размер: 7.87 GB | Добавлен: 16 д. назад | Торрент скачан:101 раз
Скачать  

06-11-2019 19:54 Посыльный Скачать торрент  

Посыльный / Message Man
Год выпуска: 2018
Страна: Индонезия Австралия Великобритания ОАЭ
Производство: Citra Entertainment Group, Head Gear Films, HJ Production, Kreo Films FZ, Rhythmic Films
Жанр: боевик, триллер, криминал
Продолжительность: 01:30:24
Перевод: Профессиональный (многоголосый) | HDRezka Studio
Субтитры: Английские

Режиссер: Кори Пирсон

rating

В ролях: Пол О’Брайэн, Захира Алека Ашари, Альфридиус Годфред, Марио Ирвинся, Агни Пратиштха Кусвардоно, Рики Мартин, Валентайн Пайен, Гэри Плант, Эрма Пратма, Пэтти Сандя

Описание: Приняв решение покончить с криминальным прошлым, бывший наемный убийца оседает вблизи побережья Индонезии, используя в качестве жилья маленькую яхту. Скромное и одинокое существование помогает Райану восстановить душевное спокойствие, но однажды его покой нарушает знакомство с задорным мальчиком Дони, которое быстро перерастает в дружбу. Однако вскоре размеренной жизни Райана приходит конец, когда Дони оказывается при смерти из-за действий местных бандитов. Готовясь отомстить за лучшего друга, бывший наемник неожиданно узнает, что индонезийские головорезы связаны с врагом из его прошлого.

Качество: BDRip 1080p
Формат: MKV

Видео: MPEG-4 AVC, 11.5 Mбит/с, 1920x804, 24.000 кадр/с
Аудио#1: Русский (АС3, 2 ch, 192 Кбит/с, 48.0 KHz) Профессиональный (многоголосый, закадровый) HDRezka Studio
Аудио#2: Английский (DTS, 6 ch, 768 Кбит/с, 48.0 KHz)
скриншот  скриншот  скриншот  скриншот  скриншот  

Источник: Message.Man.2018.1080p.BluRay.x264.DTS-FGT
General
Unique ID : 252645501082576575069352699483734436102 (0xBE11C0EAF1BC4ED4B4FA51B8C7C86906)
Complete name : Message.Man.2018.BDRip.1080p.mkv
Format : Matroska
Format version : Version 4
File size : 7.87 GiB
Duration : 1 h 30 min
Overall bit rate : 12.5 Mb/s
Movie name : Message.Man.2018.1080p.BluRay.x264.DTS-FGT
Encoded date : UTC 2019-11-06 19:08:31
Writing application : mkvmerge v7.1.0 ('Good Love') 64bit built on Jul 27 2014 13:06:55
Writing library : libebml v1.3.0 + libmatroska v1.4.1

Video
ID : 1
Format : AVC
Format/Info : Advanced Video Codec
Format profile : High@L4.1
Format settings : CABAC / 4 Ref Frames
Format settings, CABAC : Yes
Format settings, Reference fra : 4 frames
Codec ID : V_MPEG4/ISO/AVC
Duration : 1 h 30 min
Bit rate : 11.5 Mb/s
Width : 1 920 pixels
Height : 804 pixels
Display aspect ratio : 2.40:1
Frame rate mode : Constant
Frame rate : 24.000 FPS
Color space : YUV
Chroma subsampling : 4:2:0
Bit depth : 8 bits
Scan type : Progressive
Bits/(Pixel*Frame) : 0.310
Stream size : 7.26 GiB (92%)
Writing library : x264 core 148 r2795M aaa9aa8
Encoding settings : cabac=1 / ref=4 / deblock=1:-2:-2 / analyse=0x3:0x113 / me=umh / subme=9 / psy=1 / psy_rd=1.00:0.15 / mixed_ref=1 / me_range=16 / chroma_me=1 / trellis=2 / 8x8dct=1 / cqm=0 / deadzone=21,11 / fast_pskip=1 / chroma_qp_offset=-3 / threads=72 / lookahead_threads=3 / sliced_threads=0 / nr=0 / decimate=1 / interlaced=0 / bluray_compat=0 / constrained_intra=0 / bframes=3 / b_pyramid=2 / b_adapt=1 / b_bias=0 / direct=3 / weightb=1 / open_gop=0 / weightp=2 / keyint=250 / keyint_min=25 / scenecut=40 / intra_refresh=0 / rc_lookahead=50 / rc=2pass / mbtree=1 / bitrate=11500 / ratetol=1.0 / qcomp=0.60 / qpmin=0 / qpmax=69 / qpstep=4 / cplxblur=20.0 / qblur=0.5 / vbv_maxrate=31250 / vbv_bufsize=31250 / nal_hrd=none / filler=0 / ip_ratio=1.40 / aq=1:1.00
Language : English
Default : Yes
Forced : No

Audio #1
ID : 2
Format : AC-3
Format/Info : Audio Coding 3
Commercial name : Dolby Digital
Codec ID : A_AC3
Duration : 1 h 30 min
Bit rate mode : Constant
Bit rate : 192 kb/s
Channel(s) : 2 channels
Channel layout : L R
Sampling rate : 48.0 kHz
Frame rate : 31.250 FPS (1536 SPF)
Compression mode : Lossy
Stream size : 124 MiB (2%)
Title : MVO | HDRezka Studio
Language : Russian
Service kind : Complete Main
Default : Yes
Forced : No

Audio #2
ID : 3
Format : DTS
Format/Info : Digital Theater Systems
Codec ID : A_DTS
Duration : 1 h 30 min
Bit rate mode : Constant
Bit rate : 768 kb/s
Channel(s) : 6 channels
Channel layout : C L R Ls Rs LFE
Sampling rate : 48.0 kHz
Frame rate : 93.750 FPS (512 SPF)
Bit depth : 16 bits
Compression mode : Lossy
Stream size : 497 MiB (6%)
Language : English
Default : No
Forced : No

Text #1
ID : 4
Format : UTF-8
Codec ID : S_TEXT/UTF8
Codec ID/Info : UTF-8 Plain Text
Duration : 1 h 22 min
Bit rate : 5 b/s
Count of elements : 132
Stream size : 3.12 KiB (0%)
Title : FORCED
Language : English
Default : No
Forced : No

Text #2
ID : 5
Format : UTF-8
Codec ID : S_TEXT/UTF8
Codec ID/Info : UTF-8 Plain Text
Duration : 1 h 23 min
Bit rate : 21 b/s
Count of elements : 607
Stream size : 13.4 KiB (0%)
Language : English
Default : No
Forced : No

Menu
00:00:00.000 : en:Chapter 01
00:03:10.375 : en:Chapter 02
00:14:35.458 : en:Chapter 03
00:25:13.375 : en:Chapter 04
00:36:17.500 : en:Chapter 05
00:42:26.250 : en:Chapter 06
00:47:28.833 : en:Chapter 07
00:53:59.125 : en:Chapter 08
00:59:51.708 : en:Chapter 09
01:10:17.166 : en:Chapter 10
01:17:01.583 : en:Chapter 11
01:26:25.583 : en:Chapter 12

piratbit.pw



Скачать Посыльный через торрент http://d.radikal.ru/d24/1911/84/77070570dfc7.jpg Скачать фильм Посыльный через торрент бесплантно в хорошем качестве Описание: Приняв решение покончить с криминальным прошлым, бывший наемный убийца оседает вблизи побережья Индонезии, используя в качестве ... 10 10 3
Торрент: Зарегистрирован [2019-11-06 19:54] · скачан: 101 раз
Статус: T временная
Размер: 7.87 GB
Как cкачать? Как скачать Посыльный через торрент | qTorrent

% Раздел Тема Автор DL S | L
T Фильмы 2018 [DVDrip, WEB-DLRip, HDrip] (DUB, MVO) [ 1.38 GB ] Посыльный / Message Man [2018 HDRip ] [HDrezka Studio] PsYcho Скачать
10 | 1
T Фильмы (Blu-ray, BD-Remux, HDDVD) [ 14.62 GB ] Посыльный / Message Man [2018 BD Remux 1080p] MVO [HDRezka Studio] bober100 Скачать
2 | 0
T Фильмы 2018 [DVDrip, WEB-DLRip, HDrip] (DUB, MVO) [ 1.46 GB ] Посыльный / Message Man [2018 WEB-DLRip] MVO [HDRezka Studio] bober100 Скачать
3 | 0
T Фильмы (WEB-DL 720p, 1080p) [ 5.13 GB ] Посыльный / Message Man [2018 WEB-DL 1080p] MVO [HDRezka Studio] bober100 Скачать
1 | 0
    Дорогой пользователь! Огромная просьба, поблагодарите релизера, оцените раздачу и оставьте свои комментарий, если Вы скачали Посыльный через торрент бесплатно! Внесите свою лепту в развитие PiratBit!
    Комментировать посты могут только пользователи прошедшие не сложную регистрацию
    Показать сообщения:    

    Посыльный через торрент
    Скачать бесплатно Посыльный
    Посыльный скачать торрент
    Посыльный смотреть онлайн
    Cкачать фильм Посыльный бесплатно
    Посыльный скачать торрент в хорошем качестве
    Посыльный смотреть онлайн бесплатно в хорошем качестве


    Вы не можете начинать темы
    Вы не можете отвечать на сообщения
    Вы не можете редактировать свои сообщения
    Вы не можете удалять свои сообщения
    Вы не можете голосовать в опросах
    Вы не можете прикреплять файлы к сообщениям
    Вы можете скачивать файлы