Ссылка на приватное зеркало всего за 1$. Внимание количество ограничено!!!

OK

1+1

iTunes

мы

OK

1

WEB-DLRip

Джокер

Пифагор

Ведьмак / The Witcher сериал

Лицензия

ПШазам

ОК

Оно 2

iTunes

30
pack

Вам бонус

ВАЖНО

!!Акция!!

Alien_RageХит недели

RePack

Resident Evil 21

ИГРА 18+

pack

RePack

jed

!!Акция!!

Alien_Rage

RePack

fifa19

RePack

Assassins Creed: Odyssey

RePack

NEED FOR SPEED™ PAYBACK

4 сезон

9 сезон

Бесстыжие 9 сезон

Все сериалы

все сериалы на PB.wtf

RePack

FAR CRY 5
  

Универсальный солдат / Universal Soldier (Роланд Эммерих) [1992, фантастика, боевик, UHD BDRemux 2160p] [Dolby Vision TV] MVO piratbit.pw

Универсальный солдат через торрент piratbit.pw

Размер: 58.24 GB | Добавлен: 2 мес. 12 д. назад | Торрент скачан:5 раз
Скачать  

06-11-2019 08:39 Универсальный солдат Скачать торрент  

Универсальный солдат / Universal Soldier
Год выпуска: 1992
Страна: США
Жанр: фантастика, боевик
Продолжительность: 01:43:20
Перевод: Профессиональный многоголосый
Субтитры: Русские (Forced)

Режиссер: Роланд Эммерих

rating

В ролях: Жан-Клод Ван Дамм, Дольф Лундгрен, Элли Уокер, Эд О’Росс, Джерри Орбак, Леон Риппи, Тико Уэллс, Ральф Мёллер, Роберт Требор, Джин Дэвис, Дрю Снайдер, Томми Листер, Саймон Ри, Эрик Норрис, Майкл Уинтер, Джозеф Мэлоун, Рэнс Ховард, Лилиан Шовин, Джоэнн Барон, Люпе Онтиверос, Джек Мур, Джон Стори, Брэдфорд Бэнкрофт, Томас Розалес мл., Трини Трэн, Тай Тхай, Рэйчел Вагнер, Брэндон Лэмдин, Нед Беллами, Пол Рачовски, Дэниэл Деморест, Тэннер Гилл, Эдди Браун, Уолтер Роблз, Джофри С. Браун, Донна Харди, Леон Делани, Джордж Фишер, Дэвид Эфрон, Мирон Л. Лапка

Описание: Вьетнам, 1969 год, первая стычка двух американских солдат — Люка и Скотта: Люк не может стрелять в безоружных людей, Скотт же готов убивать и убивать с нечеловечески-яростной жестокостью, о которой свидетельствует ожерелье из ушей, отрезанных им у вьетнамцев. Спустя годы Люк и Скотт вновь оказываются в одном отряде — спецподразделении «универсальных солдат», которых бросают на выполнение самых опасных заданий (например, на ликвидацию террористов). «Универсального солдата» можно попытаться убить, но он будет подниматься вновь и вновь, и если понадобится, то ученые, работающие над сверхсекретным военным проектом, в специальной лаборатории займутся оживлением серьезно пострадавшего «универсала». Однако, даже зная об этом, Скотт с упорством маньяка будет преследовать Люка, чтобы сойтись с ним в решающем поединке не на жизнь, а на смерть...

Качество: UHD BDRemux 2160p | Dolby Vision TV
Формат: MP4

Видео: HEVC HDR, 64,0 Мбит/сек, 3840x2160, 24fps
Аудио: AC-3, 640kbps, 6ch
| RUS |
Данный вид релизов (контейнер MP4) предназначен для встроенного в ТВ (соответственно, с поддержкой DV) плеер.
Т.Е. Можно использовать как USB flash/HDD, так и DLNA / Plex - подобные сервисы/программы. дополнительный-внешний плеер не обязателен.

Внимание!
На моделях LG 2016 возможны сюрпризы "через раз", 2017-2018 должно идти без сюрпризов )
скриншот  скриншот  

Формат : MPEG-4
Профиль формата : Base Media / Version 2
Идентификатор кодека : mp42 (mp42/dby1/isom)
Размер файла : 58,2 Гбайт
Продолжительность : 1 ч. 43 м.
Общий поток : 80,7 Мбит/сек
Дата кодирования : UTC 2019-11-05 09:13:22
Дата пометки : UTC 2019-11-05 09:13:22

Видео #1
Идентификатор : 1
Формат : HEVC
Формат/Информация : High Efficiency Video Coding
Профиль формата : Main 10@L5.1@High
HDR_Format/String : SMPTE ST 2086, HDR10 compatible
Идентификатор кодека : hev1
Идентификатор кодека/Информация : High Efficiency Video Coding
Продолжительность : 1 ч. 43 м.
Битрейт : 64,0 Мбит/сек
Ширина : 3840 пикселей
Высота : 2160 пикселей
Соотношение сторон : 16:9
Режим частоты кадров : Постоянный
Частота кадров : 24,000 кадра/сек
Цветовое пространство : YUV
Субдискретизация насыщенности : 4:2:0 (Type 2)
Битовая глубина : 10 бит
Бит/(Пиксели*Кадры) : 0.322
Размер потока : 46,2 Гбайт (79%)
Default : Нет
Дата кодирования : UTC 2019-11-05 09:13:22
Дата пометки : UTC 2019-11-05 09:13:22
Цветовой диапазон : Limited
Основные цвета : BT.2020
Характеристики трансфера : PQ
Коэффициенты матрицы : BT.2020 non-constant
MasteringDisplay_ColorPrimaries : Display P3
MasteringDisplay_Luminance : min: 0.0001 cd/m2, max: 1000 cd/m2
MaxCLL : 818 cd/m2
MaxFALL : 554 cd/m2
Codec configuration box : hvcC

Видео #2
Идентификатор : 2
Формат : HEVC
Формат/Информация : High Efficiency Video Coding
Профиль формата : Main 10@L5.1@High
HDR_Format/String : Dolby Vision, Version 1.0, dvhe.07.06, EL+RPU / SMPTE ST 2086, HDR10 compatible
Идентификатор кодека : dvhe
Идентификатор кодека/Информация : High Efficiency Video Coding with Dolby Vision
Продолжительность : 1 ч. 43 м.
Битрейт : 16,0 Мбит/сек
Ширина : 1920 пикселей
Высота : 1080 пикселей
Соотношение сторон : 16:9
Режим частоты кадров : Постоянный
Частота кадров : 24,000 кадра/сек
Цветовое пространство : YUV
Субдискретизация насыщенности : 4:2:0 (Type 2)
Битовая глубина : 10 бит
Бит/(Пиксели*Кадры) : 0.322
Размер потока : 11,6 Гбайт (20%)
Default : Нет
Дата кодирования : UTC 2019-11-05 09:13:22
Дата пометки : UTC 2019-11-05 09:13:22
Цветовой диапазон : Limited
Основные цвета : BT.2020
Характеристики трансфера : PQ
Коэффициенты матрицы : BT.2020 non-constant
MasteringDisplay_ColorPrimaries : Display P3
MasteringDisplay_Luminance : min: 0.0001 cd/m2, max: 1000 cd/m2
Codec configuration box : hvcC+dvcC

Аудио
Идентификатор : 3
Формат : AC-3
Формат/Информация : Audio Coding 3
Коммерческое название : Dolby Digital
Идентификатор кодека : ac-3
Продолжительность : 1 ч. 43 м.
Вид битрейта : Постоянный
Битрейт : 640 Кбит/сек
Каналы : 6 каналов
ChannelLayout : L R C LFE Ls Rs
Частота : 48,0 КГц
Частота кадров : 31,250 кадров/сек (1536 SPF)
Битовая глубина : 16 бит
Метод сжатия : С потерями
Размер потока : 473 Мбайт (1%)
ServiceKind/String : Complete Main
Default : Нет
Дата кодирования : UTC 2019-11-05 09:13:22
Дата пометки : UTC 2019-11-05 09:13:22

piratbit.pw



Скачать Универсальный солдат через торрент https://a.radikal.ru/a15/1804/77/25bd8085c8d9.png Скачать фильм Универсальный солдат через торрент бесплантно в хорошем качестве Описание: Вьетнам, 1969 год, первая стычка двух американских солдат — Люка и Скотта: Люк не может стрелять в безоружных людей, Скотт же ... 10 10 7
Info! Серебряная раздача, засчитывается только 50% скачанного.
Торрент: Зарегистрирован [2019-11-06 08:39] · скачан: 5 раз
Статус: √ проверено
Размер: 58.24 GB
Как cкачать? Как скачать Универсальный солдат через торрент | qTorrent

% Раздел Тема Автор DL S | L
Ultra HD (UHD: 2K, 4K, 8K) — видео сверхвысокой чёткости [ 59.33 GB ] Универсальный солдат / Universal Soldier [1992 UHD BDRemux 2160p] DUB + 5xMVO + 3xAVO sheker187 Скачать
3 | 0
Фильмы (Blu-ray, BD-Remux, HDDVD) [ 30.03 GB ] Универсальный солдат / Universal Soldier [1992 BDRemux 1080p) [GER Transfer] DUB + 5xMVO + 4xAVO - KORSAR kisa1980 Скачать
1 | 0
Фильмы [HD 720p, 1080p] (Хороший звук DUB, MVO) [ 8.85 GB ] Универсальный солдат / Universal Soldier [1992 BDRip-HEVC 1080p ] [EUR Transfer] DUB+4xMVO+3xAVO bober100 Скачать
1 | 0
Фильмы [HD 720p, 1080p] (Хороший звук DUB, MVO) [ 11.63 GB ] Универсальный солдат / Universal Soldier [1992 BDRip 1080p] DUB MVO AVO msltel Скачать
1 | 0
Фильмы [HD 720p, 1080p] (Хороший звук DUB, MVO) [ 5.64 GB ] Универсальный солдат / Universal Soldier [1992 BDRip 720p] DUB MVO AVO msltel Скачать
1 | 0
Сборники на DVD и Сиквелы [DVDrip, WEB-DLRip, HDrip, BDRip] [ 4.36 GB ] Универсальный солдат / Universal Soldier [1992-2009 BDRip MVO] Артронах Скачать
1 | 0

28-11-2019 20:33  

Отключить всю рекламу на сайте

    Дорогой пользователь! Огромная просьба, поблагодарите релизера, оцените раздачу и оставьте свои комментарий, если Вы скачали Универсальный солдат через торрент бесплатно! Внесите свою лепту в развитие PiratBit!
    Комментировать посты могут только пользователи прошедшие не сложную регистрацию
    Показать сообщения:    

    Универсальный солдат через торрент
    Скачать бесплатно Универсальный солдат
    Универсальный солдат скачать торрент
    Универсальный солдат смотреть онлайн
    Cкачать фильм Универсальный солдат бесплатно
    Универсальный солдат скачать торрент в хорошем качестве
    Универсальный солдат смотреть онлайн бесплатно в хорошем качестве


    Вы не можете начинать темы
    Вы не можете отвечать на сообщения
    Вы не можете редактировать свои сообщения
    Вы не можете удалять свои сообщения
    Вы не можете голосовать в опросах
    Вы не можете прикреплять файлы к сообщениям
    Вы можете скачивать файлы