новый адрес пиратбит piratbit
Мега распродажа FORZA HORIZON 4 ULTIMATE+ВСЕ DLC+ОНЛАЙН всего за 499р. 349 руб. (супер цена). Внимание количество ограничено!!!

iTunes

1+1

iTunes

мы

iTunes

1

iTunes

Чернобыль

iTunes

Ральф против интернета

Лицензия

ПШазам

Лицензия

Игра престолов

Лицензия

30
pack

ВАЖНО

!!Акция!!

Alien_RageХит недели

RePack

Resident Evil 21

ИГРА 18+

pack

RePack

Metro:Exodus

!!Акция!!

Alien_Rage

RePack

fifa19

RePack

Assassins Creed: Odyssey

RePack

NEED FOR SPEED™ PAYBACK

3 сезон

9 сезон

Бесстыжие 9 сезон

Все сериалы

все сериалы на PB.wtf

RePack

FAR CRY 5
Ребята, катастрофически не хватает 1900р. для оплаты серверов за Октябрь (всвязи с блокировками трафик упал в 3 раза), 1-2р., выручайте.
  

Обитель зла: Вендетта / Resident Evil: Vendetta (Таканори Цудзимото) [2017 г., Мультфильм, ужасы, фантастика, боевик, триллер, BDRip 1080p-HEVC 10bit, Дубляж] piratbit.pw

Обитель зла: Вендетта через торрент piratbit.pw

Раздают: 8 [ 1 KB/s ] Качают: 1 [ 0 KB/s ]
Размер: 2.54 GB | Добавлен: 7 д. назад | Торрент скачан:149 раз
Скачать  

06-11-2019 08:16 Обитель зла: Вендетта Скачать торрент  

Обитель зла: Вендетта / Resident Evil: Vendetta
Год выпуска: 2017
Страна: Япония
Жанр: Мультфильм, ужасы, фантастика, боевик, триллер
Продолжительность: 01:37:14
Перевод: Дубляж
Субтитры: нет

Режиссер: Таканори Цудзимото



В ролях: Дмитрий Поляновский, Олег Вирозуб, Ирина Киреева, Ольга Голованова, Олег Куценко

Описание: Сотрудник организации по борьбе с биотерроризмом B.S.A.A. Крис Редфилд проникает в таинственный особняк, который, согласно информации, является базой контрабандистов оружием. В ходе расследования Крис сталкивается с Гленом Ариасом, преступником объявленным в международный розыск, и становится свидетелем странной картины, в результате которой упускает Ариаса.

Качество: BDRip 1080p
Формат: MKV
Видео кодек: H.265
Аудио кодек: AC3
Видео: HEVC/H.265, 1920x1080, ~3737 Kbps
Аудио#1: AC3, 6 ch, 384 Kbps Русский (дублированный)
Релиз от: ADVOKAT69
скриншот  ,скриншот  ,скриншот  ,скриншот  ,

Общее
Уникальный идентификатор : 195245078630098156118640386484550017806 (0x92E2D5977D48A57180EA077C4628A30E)
Полное имя : E:\Обитель зла Вендетта (2017) HEVC 10bit.mkv
Формат : Matroska
Версия формата : Version 4
Размер файла : 2,54 Гбайт
Продолжительность : 1 ч. 37 м.
Общий поток : 3737 Кбит/сек
Название фильма : Resident Evil: Vendetta
Дата кодирования : UTC 2019-11-05 18:08:37
Программа кодирования : mkvmerge v9.2.0 ('Photograph') 64bit
Библиотека кодирования : libebml v1.3.3 + libmatroska v1.4.4

Видео
Идентификатор : 1
Формат : HEVC
Формат/Информация : High Efficiency Video Coding
Профиль формата : Main 10@L4@Main
Идентификатор кодека : V_MPEGH/ISO/HEVC
Продолжительность : 1 ч. 37 м.
Битрейт : 3351 Кбит/сек
Ширина : 1920 пикселей
Высота : 1080 пикселей
Соотношение сторон : 16:9
Режим частоты кадров : Постоянный
Частота кадров : 23,976 (24000/1001) кадра/сек
Цветовое пространство : YUV
Субдискретизация насыщенности : 4:2:0
Битовая глубина : 10 бит
Бит/(Пиксели*Кадры) : 0.067
Размер потока : 2,28 Гбайт (90%)
Библиотека кодирования : x265 2.4+90-67dcf6e79090:[Windows][GCC 6.2.1][64 bit] 10bit
Настройки программы : cpuid=1173503 / frame-threads=3 / numa-pools=8 / wpp / no-pmode / no-pme / no-psnr / no-ssim / log-level=2 / input-csp=1 / input-res=1920x1080 / interlace=0 / total-frames=139896 / level-idc=0 / high-tier=1 / uhd-bd=0 / ref=4 / no-allow-non-conformance / no-repeat-headers / annexb / no-aud / no-hrd / info / hash=0 / no-temporal-layers / open-gop / min-keyint=23 / keyint=250 / bframes=4 / b-adapt=2 / b-pyramid / bframe-bias=0 / rc-lookahead=25 / lookahead-slices=4 / scenecut=40 / no-intra-refresh / ctu=64 / min-cu-size=8 / rect / no-amp / max-tu-size=32 / tu-inter-depth=1 / tu-intra-depth=1 / limit-tu=0 / rdoq-level=2 / dynamic-rd=0.00 / no-ssim-rd / signhide / no-tskip / nr-intra=0 / nr-inter=0 / no-constrained-intra / strong-intra-smoothing / max-merge=3 / limit-refs=3 / limit-modes / me=3 / subme=3 / merange=57 / temporal-mvp / weightp / no-weightb / no-analyze-src-pics / deblock=0:0 / sao / no-sao-non-deblock / rd=4 / no-early-skip / rskip / no-fast-intra / no-tskip-fast / no-cu-lossless / no-b-intra / rdpenalty=0 / psy-rd=2.00 / psy-rdoq=1.00 / no-rd-refine / analysis-reuse-mode=0 / no-lossless / cbqpoffs=0 / crqpoffs=0 / rc=abr / bitrate=3350 / qcomp=0.60 / qpstep=4 / stats-write=0 / stats-read=2 / cplxblur=20.0 / qblur=0.5 / ipratio=1.40 / pbratio=1.30 / aq-mode=3 / aq-strength=1.00 / cutree / zone-count=0 / no-strict-cbr / qg-size=32 / no-rc-grain / qpmax=69 / qpmin=0 / no-const-vbv / sar=0 / overscan=0 / videoformat=5 / range=0 / colorprim=2 / transfer=2 / colormatrix=2 / chromaloc=0 / display-window=0 / max-cll=0,0 / min-luma=0 / max-luma=1023 / log2-max-poc-lsb=8 / vui-timing-info / vui-hrd-info / slices=1 / opt-qp-pps / opt-ref-list-length-pps / no-multi-pass-opt-rps / scenecut-bias=0.05 / no-opt-cu-delta-qp / no-aq-motion / no-hdr / no-hdr-opt / no-dhdr10-opt / analysis-reuse-level=5 / scale-factor=0 / refine-intra=0 / refine-inter=0 / refine-mv=0 / no-limit-sao / ctu-info=0
Default : Да
Forced : Нет

Аудио
Идентификатор : 2
Формат : AC-3
Формат/Информация : Audio Coding 3
Коммерческое название : Dolby Digital
Идентификатор кодека : A_AC3
Продолжительность : 1 ч. 37 м.
Вид битрейта : Постоянный
Битрейт : 384 Кбит/сек
Каналы : 6 каналов
Channel layout : L R C LFE Ls Rs
Частота : 48,0 КГц
Частота кадров : 31,250 кадров/сек (1536 SPF)
Битовая глубина : 16 бит
Метод сжатия : С потерями
Размер потока : 267 Мбайт (10%)
Заголовок : Дублированный iTunes
ServiceKind/String : Complete Main
Default : Да
Forced : Нет

Меню
00:00:00.000 : en:Chapter 01
00:01:57.325 : en:Chapter 02
00:11:47.623 : en:Chapter 03
00:17:52.237 : en:Chapter 04
00:25:12.177 : en:Chapter 05
00:31:00.567 : en:Chapter 06
00:36:42.783 : en:Chapter 07
00:42:49.817 : en:Chapter 08
00:48:20.981 : en:Chapter 09
00:53:50.852 : en:Chapter 10
00:58:51.027 : en:Chapter 11
01:06:58.597 : en:Chapter 12
01:11:38.752 : en:Chapter 13
01:15:12.716 : en:Chapter 14
01:21:41.521 : en:Chapter 15
01:29:38.790 : en:Chapter 16

piratbit.pw



Скачать Обитель зла: Вендетта через торрент https://c.radikal.ru/c33/1911/b9/3adae4112978.png Скачать фильм Обитель зла: Вендетта через торрент бесплантно в хорошем качестве Описание: Сотрудник организации по борьбе с биотерроризмом B.S.A.A. Крис Редфилд проникает в таинственный особняк, который, согласно ... 9.7 10 6
Торрент: Зарегистрирован [2019-11-06 08:16] · скачан: 149 раз
Статус: √ проверено
Размер: 2.54 GB
Как cкачать? Как скачать Обитель зла: Вендетта через торрент | qTorrent

% Раздел Тема Автор DL S | L
Ultra HD (UHD: 2K, 4K, 8K) [ 38.99 GB ] Обитель зла: Вендетта / Resident Evil: Vendetta [2017 мультфильм UHD BDRemux 2160p] DUB [] [Dolby Vision TV] sheker187 Скачать
1 | 0
Зарубежные Мультфильмы (BDRip 1080p, 720p, Blu-ray, BD-Remux) [ 20.38 GB ] Обитель зла: Вендетта / Resident Evil: Vendetta [2017 Мультфильм BDRemux 1080p] bober100 Скачать
2 | 0
Иностранные мультфильмы [ 2.06 GB ] Обитель зла: Вендетта / Resident Evil: Vendetta [2017 мультфильм BDRip ] - ExKinoRay Enigma2010 Скачать
2 | 0
Иностранные мультфильмы [ 1.46 GB ] Обитель зла: Вендетта / Resident Evil: Vendetta [2017 мультфильм BDRip] - [] Twi7ter Скачать
2 | 0
Иностранные мультфильмы [ 1.42 GB ] Обитель зла: Вендетта / Resident Evil: Vendetta [2017 BDRip-AVC] bober100 Скачать
1 | 0
Зарубежные Мультфильмы (BDRip 1080p, 720p, Blu-ray, BD-Remux) [ 10.75 GB ] Обитель зла: Вендетта / Resident Evil: Vendetta [2017 Мультфильм BDRip 1080p] bober100 Скачать
1 | 1
Иностранные мультфильмы [ 1.93 GB ] Обитель зла: Вендетта / Resident Evil: Vendetta [2017 мультфильм BDRip-AVC ] - ExKinoRay Enigma2010 Скачать
1 | 0


>> Регистрируемся здесь <<






Отзывы и комментарии о схеме читаем и пишем здесь: ---> Отзывы и комментарии о схеме

Новые благодарочки в телеграм довольных пользователей:
скриншот   скриншот   скриншот   скриншот   скриншот
    Дорогой пользователь! Огромная просьба, поблагодарите релизера, оцените раздачу и оставьте свои комментарий, если Вы скачали Обитель зла: Вендетта через торрент бесплатно! Внесите свою лепту в развитие PiratBit!
    Комментировать посты могут только пользователи прошедшие не сложную регистрацию
    Показать сообщения:    

    Обитель зла: Вендетта через торрент
    Скачать бесплатно Обитель зла: Вендетта
    Обитель зла: Вендетта скачать торрент
    Обитель зла: Вендетта смотреть онлайн
    Cкачать фильм Обитель зла: Вендетта бесплатно
    Обитель зла: Вендетта скачать торрент в хорошем качестве
    Обитель зла: Вендетта смотреть онлайн бесплатно в хорошем качестве


    Вы не можете начинать темы
    Вы не можете отвечать на сообщения
    Вы не можете редактировать свои сообщения
    Вы не можете удалять свои сообщения
    Вы не можете голосовать в опросах
    Вы не можете прикреплять файлы к сообщениям
    Вы можете скачивать файлы