Ссылка на приватное зеркало всего за 1$. Внимание количество ограничено!!!

iTunes

iTunes

iTunes

1

iTunes

iTunes

iTunes

iTunes

iTunes

30
pack

Новость дня

ВАЖНО

!!Акция!!

Alien_RageХит недели

RePack

Resident Evil 21

ИГРА 18+

pack

RePack

jed

!!Акция!!

Alien_Rage

RePack

fifa19

RePack

Assassins Creed: Odyssey

RePack

NEED FOR SPEED™ PAYBACK

4 сезон

9 сезон

Бесстыжие 9 сезон

Все сериалы

все сериалы на PB.wtf

RePack

FAR CRY 5
  

Между нами музыка / Song to Song (Терренс Малик) [2017 г., драма, мелодрама, музыка, HDRip, Профессиональное (многоголосое) [iTunes]] piratbit.pw

Между нами музыка через торрент piratbit.pw

Раздают: 2 [ 0 KB/s ]
Размер: 2.18 GB | Добавлен: 6 мес. назад | Торрент скачан:21 раз
Скачать  

05-11-2019 21:57 Между нами музыка Скачать торрент  

Между нами музыка / Song to Song

Год выпуска: 2017
Страна: США / Buckeye Pictures
Жанр: драма, мелодрама, музыка
Продолжительность: 02:08:54
Перевод: Профессиональное (многоголосое) [iTunes]

Режиссер: Терренс Малик

rating

В ролях: Натали Портман, Майкл Фассбендер, Райан Гослинг, Руни Мара, Кейт Бланшетт, Холли Хантер, Беренис Марло, Вэл Килмер, Люкке Ли, Оливия Грэйс Эпплгейт

Описание: Фэй – очаровательная молодая барышня, отличающаяся удивительно мягким и восторженным нравом, тягой к романтике и состоянию влюбленности. На одной из шумных вечеринок она знакомится с амбициозным и талантливым парнем по имени БиВи, занимающимся музыкой. Две возвышенные натуры сразу находят общий язык, и их отношения начинают стремительное развитие от робкой симпатии к истинной страсти. Ситуация осложнена тем, что у девушки уже был любимый мужчина – обеспеченный и влиятельный музыкальный продюсер Кук, к тому же хороший знакомый ее нового возлюбленного. Она долго сомневается и не может сделать выбор, решить, какой из двух объектов нежных чувств нравится ей больше. Она еще не подозревает, что скоро компромисс придется искать между двумя более серьезными понятиями: желанной карьерой и любовью... В этот же отрезок времени Кук встречает Ронду – эффектную и привлекательную девчушку, работающую официанткой. Вскоре она уже занимает значимое место в его сердце и жизни. Судьбы героев переплетаются причудливым образом, периодически заставляя каждого из них задавать себе сложные вопросы и находить на них ответы. От очередного решения зависит их будущее, но ведь никогда неизвестно заранее, как будут разворачиваться события...

Качество: HDRip
Формат: AVI
Видео кодек: XviD
Аудио кодек: AC3
Видео: 1640 Kb/s, 720x304
Аудио#1: Russian: AC3, 384 Kb/s (6 ch)
Аудио#2: English: AC3, 384 Kb/s (6 ch)

Общее
Полное имя : Mezhdu.nami.muzyika.2017.HDRip.avi
Формат : AVI
Формат/Информация : Audio Video Interleave
Профиль формата : OpenDML
Размер файла : 2,18 Гбайт
Продолжительность : 2 ч. 8 м.
Общий поток : 2425 Кбит/сек
Название фильма : Между нами музыка_2017_HDRip
Программа кодирования : VirtualDubMod 1.5.10.3 | www.virtualdub-fr.org || (build 2550/release)
Авторское право : порошков

Видео
Идентификатор : 0
Формат : MPEG-4 Visual
Профиль формата : Advanced Simple@L5
Настройки формата : BVOP1 / Custom Matrix
Параметр BVOP формата : 1
Параметр QPel формата : Нет
Параметр GMC формата : Без точки перехода
Параметр матрицы формата : Выборочная
Идентификатор кодека : XVID
Идентификатор кодека/Подсказка : XviD
Продолжительность : 2 ч. 8 м.
Битрейт : 1640 Кбит/сек
Ширина : 720 пикселей
Высота : 304 пикселя
Соотношение сторон : 2,35:1
Частота кадров : 23,976 (24000/1001) кадра/сек
Цветовое пространство : YUV
Субдискретизация насыщенности : 4:2:0
Битовая глубина : 8 бит
Тип развёртки : Прогрессивная
Метод сжатия : С потерями
Бит/(Пиксели*Кадры) : 0.312
Размер потока : 1,48 Гбайт (68%)
Библиотека кодирования : XviD 73

Аудио #1
Идентификатор : 1
Формат : AC-3
Формат/Информация : Audio Coding 3
Коммерческое название : Dolby Digital
Идентификатор кодека : 2000
Продолжительность : 2 ч. 8 м.
Вид битрейта : Постоянный
Битрейт : 384 Кбит/сек
Каналы : 6 каналов
ChannelLayout : L R C LFE Ls Rs
Частота : 48,0 КГц
Частота кадров : 31,250 кадров/сек (1536 SPF)
Метод сжатия : С потерями
Размер потока : 354 Мбайт (16%)
Выравнивание : Разделение по промежуткам
Продолжительность промежутка : 42 мс. (1,00 видеокадр)
Время предзагрузки промежутка : 500 мс.
Заголовок : Rus
ServiceKind/String : Complete Main

Аудио #2
Идентификатор : 2
Формат : AC-3
Формат/Информация : Audio Coding 3
Коммерческое название : Dolby Digital
Идентификатор кодека : 2000
Продолжительность : 2 ч. 8 м.
Вид битрейта : Постоянный
Битрейт : 384 Кбит/сек
Каналы : 6 каналов
ChannelLayout : L R C LFE Ls Rs
Частота : 48,0 КГц
Частота кадров : 31,250 кадров/сек (1536 SPF)
Метод сжатия : С потерями
Размер потока : 354 Мбайт (16%)
Выравнивание : Разделение по промежуткам
Продолжительность промежутка : 42 мс. (1,00 видеокадр)
Время предзагрузки промежутка : 500 мс.
Заголовок : Eng
ServiceKind/String : Complete Main

piratbit.pw



Скачать Между нами музыка через торрент http://pic1.kartinco.top/images/12/7xd3e.jpg Скачать фильм Между нами музыка через торрент бесплантно в хорошем качестве Описание: Фэй – очаровательная молодая барышня, отличающаяся удивительно мягким и восторженным нравом, тягой к романтике и состоянию ... 10 10 1
Торрент: Зарегистрирован [2019-11-05 21:57] · скачан: 21 раз
Статус: √ проверено
Размер: 2.18 GB
Как cкачать? Как скачать Между нами музыка через торрент | qTorrent

% Раздел Тема Автор DL S | L
Фильмы [HD 720p, 1080p] (Хороший звук DUB, MVO) [ 18.3 GB ] Между нами музыка / Song to Song [2017 музыка BDRip 1080p] MVO bober100 Скачать
1 | 0

28-11-2019 20:33  

Отключить всю рекламу на сайте

    Дорогой пользователь! Огромная просьба, поблагодарите релизера, оцените раздачу и оставьте свои комментарий, если Вы скачали Между нами музыка через торрент бесплатно! Внесите свою лепту в развитие PiratBit!
    Комментировать посты могут только пользователи прошедшие не сложную регистрацию
    Показать сообщения:    

    Между нами музыка через торрент
    Скачать бесплатно Между нами музыка
    Между нами музыка скачать торрент
    Между нами музыка смотреть онлайн
    Cкачать фильм Между нами музыка бесплатно
    Между нами музыка скачать торрент в хорошем качестве
    Между нами музыка смотреть онлайн бесплатно в хорошем качестве


    Вы не можете начинать темы
    Вы не можете отвечать на сообщения
    Вы не можете редактировать свои сообщения
    Вы не можете удалять свои сообщения
    Вы не можете голосовать в опросах
    Вы не можете прикреплять файлы к сообщениям
    Вы можете скачивать файлы