новый адрес
Мега распродажа FORZA HORIZON 4 ULTIMATE+ВСЕ DLC+ОНЛАЙН всего за 499р. 349 руб. (супер цена). Внимание количество ограничено!!!

iTunes

1+1

iTunes

мы

iTunes

1

iTunes

Чернобыль

iTunes

Ральф против интернета

Лицензия

ПШазам

Лицензия

Игра престолов

Лицензия

30
pack

ВАЖНО

!!Акция!!

Alien_RageХит недели

RePack

Resident Evil 21

ИГРА 18+

pack

RePack

Metro:Exodus

!!Акция!!

Alien_Rage

RePack

fifa19

RePack

Assassins Creed: Odyssey

RePack

NEED FOR SPEED™ PAYBACK

3 сезон

9 сезон

Бесстыжие 9 сезон

Все сериалы

все сериалы на PB.wtf

RePack

FAR CRY 5
Ребята, катастрофически не хватает 1900р. для оплаты серверов за Октябрь (всвязи с блокировками трафик упал в 3 раза), 1-2р., выручайте.
  

Маленькая Италия / Little Italy (Дональд Питри) [2018, мелодрама, комедия, HDRip] DUB [Line] piratbit.pw

Маленькая Италия через торрент piratbit.pw

Раздают: 6 [ 0 KB/s ]
Размер: 1.37 GB | Добавлен: 11 д. назад | Торрент скачан:42 раза
Скачать  

05-11-2019 18:51 Маленькая Италия Скачать торрент  

Маленькая Италия / Little Italy

Год выпуска: 2018
Страна: Канада, США / Firsttake Entertainment
Жанр: мелодрама, комедия
Продолжительность: 01:43:57
Перевод: Дублированный | Line

Режиссер: Дональд Питри

rating

В ролях: Хейден Кристенсен, Эмма Робертс, Алисса Милано, Дэнни Айелло, Андреа Мартин, Джейн Сеймур, Гэри Басараба, Адам Феррара, Эндрю Фунг, Васант Саранга

Описание: Родители Лео, как и родители Никки, приехали в Канаду из Италии и открыли здесь свою пиццерию. Между двумя ресторанами и двумя семьями устанавливается ожесточенная конкуренция. Тем временем между Лео и Никки, вопреки всему, завязывается роман.

Доп. информация: Есть реклама!

Качество: HDRip
Формат: AVI
Видео кодек: XviD
Аудио кодек: AC3
Видео: 1616 Kb/s, 720х304
Аудио#1: AC3, 256 Kb/s (2 ch)

СЕМПЛ
Общее
Полное имя : Little.Italy.2018.D.HDRip.14OOMB.avi
Формат : AVI
Формат/Информация : Audio Video Interleave
Размер файла : 1,37 Гбайт
Продолжительность : 1 ч. 43 м.
Общий поток : 1882 Кбит/сек
Программа кодирования : VirtualDubMod 1.5.10.3 | www.virtualdub-fr.org || (build 2550/release)
Библиотека кодирования : VirtualDubMod build 2550/release

Видео
Идентификатор : 0
Формат : MPEG-4 Visual
Профиль формата : Advanced Simple@L5
Настройки формата : BVOP2 / Custom Matrix
Параметр BVOP формата : 2
Параметр QPel формата : Нет
Параметр GMC формата : Без точки перехода
Параметр матрицы формата : Выборочная
Идентификатор кодека : XVID
Идентификатор кодека/Подсказка : XviD
Продолжительность : 1 ч. 43 м.
Битрейт : 1617 Кбит/сек
Ширина : 720 пикселей
Высота : 304 пикселя
Соотношение сторон : 2,35:1
Частота кадров : 23,976 (24000/1001) кадра/сек
Цветовое пространство : YUV
Субдискретизация насыщенности : 4:2:0
Битовая глубина : 8 бит
Тип развёртки : Прогрессивная
Метод сжатия : С потерями
Бит/(Пиксели*Кадры) : 0.308
Размер потока : 1,17 Гбайт (86%)
Библиотека кодирования : XviD 1.2.1 (UTC 2008-12-04)

Аудио
Идентификатор : 1
Формат : AC-3
Формат/Информация : Audio Coding 3
Коммерческое название : Dolby Digital
Идентификатор кодека : 2000
Продолжительность : 1 ч. 43 м.
Вид битрейта : Постоянный
Битрейт : 256 Кбит/сек
Каналы : 2 канала
ChannelLayout : L R
Частота : 48,0 КГц
Частота кадров : 31,250 кадров/сек (1536 SPF)
Метод сжатия : С потерями
Размер потока : 190 Мбайт (14%)
Выравнивание : Разделение по промежуткам
Продолжительность промежутка : 42 мс. (1,00 видеокадр)
Время предзагрузки промежутка : 500 мс.
ServiceKind/String : Complete Main

piratbit.pw



Скачать Маленькая Италия через торрент http://pic1.kartinco.top/images/12/667e2.jpg Скачать фильм Маленькая Италия через торрент бесплантно в хорошем качестве Описание: Родители Лео, как и родители Никки, приехали в Канаду из Италии и открыли здесь свою пиццерию. Между двумя ресторанами и двумя ... 10 10 3
Торрент: Зарегистрирован [2019-11-05 18:51] · скачан: 42 раз
Статус: T временная
Размер: 1.37 GB
Как cкачать? Как скачать Маленькая Италия через торрент | qTorrent

% Раздел Тема Автор DL S | L
T Фильмы (WEB-DL 720p, 1080p) [ 3.65 GB ] Маленькая Италия / Little Italy [2018 WEB-DL 1080p] MVO [HDRezka Studio] bober100 Скачать
1 | 0


Последний раз редактировалось: PsYcho (2019-11-05 19:58), всего редактировалось 1 раз


>> Регистрируемся здесь <<






Отзывы и комментарии о схеме читаем и пишем здесь: ---> Отзывы и комментарии о схеме

Новые благодарочки в телеграм довольных пользователей:
скриншот   скриншот   скриншот   скриншот   скриншот

05-11-2019 20:14 Маленькая Италия Скачать торрент  

    Дорогой пользователь! Огромная просьба, поблагодарите релизера, оцените раздачу и оставьте свои комментарий, если Вы скачали Маленькая Италия через торрент бесплатно! Внесите свою лепту в развитие PiratBit!
    Комментировать посты могут только пользователи прошедшие не сложную регистрацию
    Показать сообщения:    

    Маленькая Италия через торрент
    Скачать бесплатно Маленькая Италия
    Маленькая Италия скачать торрент
    Маленькая Италия смотреть онлайн
    Cкачать фильм Маленькая Италия бесплатно
    Маленькая Италия скачать торрент в хорошем качестве
    Маленькая Италия смотреть онлайн бесплатно в хорошем качестве


    Вы не можете начинать темы
    Вы не можете отвечать на сообщения
    Вы не можете редактировать свои сообщения
    Вы не можете удалять свои сообщения
    Вы не можете голосовать в опросах
    Вы не можете прикреплять файлы к сообщениям
    Вы можете скачивать файлы