Ссылка на приватное зеркало всего за 1$. Внимание количество ограничено!!!


iTunes

1+1

iTunes

мы

WEB-DL

1

iTunes

Чернобыль

iTunes

Ральф против интернета

Лицензия

ПШазам

Лицензия

Оно 2

WEB-DL

30
pack

Вам бонус

ВАЖНО

!!Акция!!

Alien_RageХит недели

RePack

Resident Evil 21

ИГРА 18+

pack

RePack

jed

!!Акция!!

Alien_Rage

RePack

fifa19

RePack

Assassins Creed: Odyssey

RePack

NEED FOR SPEED™ PAYBACK

4 сезон

9 сезон

Бесстыжие 9 сезон

Все сериалы

все сериалы на PB.wtf

RePack

FAR CRY 5
Ребята, катастрофически не хватает 1900р. для оплаты серверов за Октябрь (всвязи с блокировками трафик упал в 3 раза), 1-2р., выручайте.
  

Видеть / See / Сезон: 1 / Серии: 1-8 из 8 (Френсис Лоуренс, Андерс Энгстрем, Стивен Серджик, Фред Туа) [2019, фантастика, драма, WEB-DL 1080p] MVO [Lostfilm] piratbit.pw

Видеть через торрент piratbit.pw

Раздают: 3 [ 1 MB/s ] Качают: 5 [ 0 KB/s ]
Размер: 32.49 GB | Добавлен: 5 д. назад | Торрент скачан:19 раз
Скачать  

04-11-2019 20:38 Видеть Скачать торрент  

Видеть / See Год выпуска: 2019
Страна: США
Жанр: фантастика, драма
Продолжительность: 00:57:00
Перевод: Профессиональный (многоголосый закадровый) | Lostfilm
Субтитры: Русские (Apple TV+), Русские (Forced), Английские

Режиссёр: Френсис Лоуренс, Андерс Энгстрем, Стивен Серджик, Фред Туа

В ролях: Джейсон Момоа, Кристиан Камарго, Элфри Вудард, Сильвия Хукс, Ядира Гевара-Прип, Неста Марли Купер, Джош Блэкер, Кеннет Митчелл, Мэрили Токингтон, Хиро Канагава

Описание: "Видеть" - это высокобюджетная постапокалиптическая драма потокового сервиса Apple TV+, отвечающая вкусам самой требовательной аудитории. Ее создателем выступил британский фильммейкер Стивен Найт, хорошо знакомый сериаломанам по гангстерской саге "Острые козырьки" и мистической драме "Табу". А съемки пилота возглавил Френсис Лоуренс, вдоль и поперек изучивший мир дистопического будущего по успешной франшизе "Голодные игры". Вместе с героями сериала "Видеть" мы переносимся на столетия вперед и знакомимся с выжившими после эпидемии остатками человечества, чьи моральные устои и уклад жизни могут повергнуть современного зрителя в глубокий шок. Кроме того, все сюжетные перипетии разворачиваются на фоне роскошных природных локаций, а главные герои шоу могут похвастаться отменной физической силой, собственной любопытной философией и непобедимой силой духа. А еще все они абсолютно слепые, что придает шоу изюминку и выделяет его на фоне похожих проектов. Главную роль в драме "Видеть" исполнил звезда "Аквамена" и "Игры престолов" Джейсон Момоа.

Сюжет: После того как эпидемия страшного вируса сократила население Земли до двух миллионов человек, а тех, кто выжил, лишила зрения, люди регрессировали до жизни в пещерах, языческих обрядов, охоты и собирательства. Зрение стало мифом, а любые разговоры о нем начали считаться ересью. Племена сражаются друг с другом, воздух в живописных лесах и заснеженных горах пропитан опасностью, охота на ведьм стала делом обыденным, а ценность человеческой жизни теперь понятие относительное. Однако и в таких суровых условиях люди продолжают любить и рожать детей. Главе племени охотников Бабе Воссу (Джейсон Момоа) повезло - у него родились сразу двое малышей. И оба, как назло, зрячие. Когда о такой ужасной аномалии, ставящей под угрозу все существование нового мира, узнает королева Кейн (Сильвия Хукс), поиски этой "злой силы света" становится ее целью, для достижения которой поборники "правильных" взглядов не остановятся ни перед чем. Тем временем Баба Восс со своей женой, детьми и группой отщепенцев отправляются на поиски еретика Джерламарела (Джошуа Генри), который, по слухам, обладает особым даром. Успеют ли они найти своего спасителя до того, как приспешники королевы их настигнут, и чем закончится противостояние "официальной власти" и верящей в силу света "оппозиции", если стороны схлестнутся в открытой схватке?..



Качество: WEB-DL 1080p (Apple TV+)
Контейнер: MKV

Видео: H.264/AVC, 1920 x 910 (2,11:1), 23,976 fps, ~9871 kbps, ~+ bit/pixel
Аудио №1: Русский AC3 5.1, 48 kHz, 384 kbps
Аудио №2: Английский AC3 5.1, 48 kHz, 384 kbps


Реклама: отсутствует
Работа со звуком, субтитрами: itunestv@eniahd
Eng: A journey of survival begins when an army of Witchfinders attacks the village of Alkenny.
Rus:
General
Unique ID                                : 83481378701794238049052132595717082638 (0x3ECDEDBF8C796FA3550A6852F5D38E0E)
Complete name                            : See.S01E01.Godflame.1080p.ATVP.WEB-DL.H.264.RUS.LF.DD5.1.SUB-EniaHD.mkv
Format                                   : Matroska
Format version                           : Version 4
File size                                : 4.28 GiB
Duration                                 : 57 min 30 s
Overall bit rate                         : 10.7 Mb/s
Movie name                               : See, Season 1 / Godflame
Track name/Position                      : 1
Track name/Total                         : 8
Description                              : A journey of survival begins when an army of Witchfinders attacks the village of Alkenny.
Released date                            : 2019-11-01T12:00:00
Writing application                      : mkvmerge v38.0.0 ('The Silent Type') 64-bit
Writing library                          : libebml v1.3.9 + libmatroska v1.5.2
Cover                                    : Yes
Attachments                              : small_cover.jpg / cover.jpg

Video
ID                                       : 1
Format                                   : AVC
Format/Info                              : Advanced Video Codec
Format profile                           : High@L4
Format settings                          : CABAC / 4 Ref Frames
Format settings, CABAC                   : Yes
Format settings, ReFrames                : 4 frames
Codec ID                                 : V_MPEG4/ISO/AVC
Duration                                 : 57 min 30 s
Bit rate                                 : 9 871 kb/s
Width                                    : 1 920 pixels
Height                                   : 910 pixels
Display aspect ratio                     : 2.110
Frame rate mode                          : Constant
Frame rate                               : 23.976 (24000/1001) FPS
Color space                              : YUV
Chroma subsampling                       : 4:2:0
Bit depth                                : 8 bits
Scan type                                : Progressive
Bits/(Pixel*Frame)                       : 0.236
Stream size                              : 3.97 GiB (93%)
Language                                 : English
Default                                  : Yes
Forced                                   : No
Color range                              : Limited
Color primaries                          : BT.709
Transfer characteristics                 : BT.709
Matrix coefficients                      : BT.709

Audio #1
ID                                       : 2
Format                                   : AC-3
Format/Info                              : Audio Coding 3
Commercial name                          : Dolby Digital
Codec ID                                 : A_AC3
Duration                                 : 57 min 30 s
Bit rate mode                            : Constant
Bit rate                                 : 384 kb/s
Channel(s)                               : 6 channels
Channel layout                           : L R C LFE Ls Rs
Sampling rate                            : 48.0 kHz
Frame rate                               : 31.250 FPS (1536 SPF)
Bit depth                                : 16 bits
Compression mode                         : Lossy
Stream size                              : 158 MiB (4%)
Title                                    : AC3 5.1 @ 384kbps - MVO, Lostfilm
Language                                 : Russian
Service kind                             : Complete Main
Default                                  : Yes
Forced                                   : No
Released date                            : 2019-11-04T17:45:36Z

Audio #2
ID                                       : 3
Format                                   : AC-3
Format/Info                              : Audio Coding 3
Commercial name                          : Dolby Digital
Codec ID                                 : A_AC3
Duration                                 : 57 min 30 s
Bit rate mode                            : Constant
Bit rate                                 : 384 kb/s
Channel(s)                               : 6 channels
Channel layout                           : L R C LFE Ls Rs
Sampling rate                            : 48.0 kHz
Frame rate                               : 31.250 FPS (1536 SPF)
Bit depth                                : 16 bits
Compression mode                         : Lossy
Stream size                              : 158 MiB (4%)
Title                                    : AC3 5.1 @ 384kbps - Original
Language                                 : English
Service kind                             : Complete Main
Default                                  : No
Forced                                   : No

Text #1
ID                                       : 4
Format                                   : PGS
Muxing mode                              : zlib
Codec ID                                 : S_HDMV/PGS
Codec ID/Info                            : Picture based subtitle format used on BDs/HD-DVDs
Duration                                 : 7 s 7 ms
Bit rate                                 : 1 686 kb/s
Count of elements                        : 51
Stream size                              : 1.41 MiB (0%)
Title                                    : Forced
Language                                 : Russian
Default                                  : Yes
Forced                                   : Yes

Text #2
ID                                       : 5
Format                                   : PGS
Muxing mode                              : zlib
Codec ID                                 : S_HDMV/PGS
Codec ID/Info                            : Picture based subtitle format used on BDs/HD-DVDs
Duration                                 : 55 min 46 s
Bit rate                                 : 34.6 kb/s
Count of elements                        : 1196
Stream size                              : 13.8 MiB (0%)
Title                                    : Apple TV+
Language                                 : Russian
Default                                  : No
Forced                                   : No

Text #3
ID                                       : 6
Format                                   : UTF-8
Codec ID                                 : S_TEXT/UTF8
Codec ID/Info                            : UTF-8 Plain Text
Duration                                 : 55 min 54 s
Bit rate                                 : 40 b/s
Count of elements                        : 601
Stream size                              : 16.8 KiB (0%)
Language                                 : English
Default                                  : No
Forced                                   : No
Когда раздача ведётся путём добавления новых серий, при каждом добавлении создётся новый торрент. Чтобы начать докачку новой серии, пользователям необходимо сделать следующее:
(1) остановить скачивание,
(2) удалить старый торрент у себя из клиента (старые серии удалять не надо),
(3) скачать новый торрент и запустить его у себя в клиенте вместо старого, при этом указать клиенту путь в старую папку, куда и должно происходить скачивание новых серий.
Ваш клиент при этом должен произвести хеширование (проверку) старой папки (если не производит сам - помогите ему сделать это), и будет докачивать только те серии, которых у вас ещё нет.Старые серии при этом не удаляются, а продолжают раздаваться!
Eсли вы уже удалили старые серии, то предотвратить повторную закачку старых серий можно, отжав галочку в соответсвующих местах при запуске нового торрента. По возможности, желательно не удалять старые серии как можно дольше, чтобы релизёр не столько продолжал раздавать старые серии, а смог сконцентрироваться на новых.
piratbit.pw



Скачать Видеть через торрент https://img15.lostpic.net/2019/11/02/897496f23ebb8303272b6a64832ee1bc.jpg Скачать фильм Видеть через торрент бесплантно в хорошем качестве Описание: "Видеть" - это высокобюджетная постапокалиптическая драма потокового сервиса Apple TV+, отвечающая вкусам самой требовательной ... 9.1 10 11
Торрент: Зарегистрирован [2019-12-10 07:59] · скачан: 19 раз
Статус: √ проверено
Размер: 32.49 GB
Как cкачать? Как скачать Видеть через торрент | qTorrent

% Раздел Тема Автор DL S | L
Зарубежные сериалы [ 28.25 GB ] Видеть / See / Сезон: 1 / Серии: 1-8 из 8 [2019 WEBRip 1080p] DVO [Gears Media] bober100 Скачать
1 | 4
Зарубежные сериалы [ 10.23 GB ] Видеть / See / Сезон: 1 / Серии: 1-8 из 8 [2019 WEBRip 720p] DVO [Gears Media] bober100 Скачать
3 | 4
Зарубежные сериалы [ 5.06 GB ] Видеть / See / Сезон: 1 / Серии: 1-8 из 8 [2019 WEBRip] [MVO] killermax2013 Скачать
5 | 2
Зарубежные сериалы [ 18.54 GB ] Видеть / See / Сезон: 1 / Серии: 1-8 из 8 [2019 WEBRip 1080p] [MVO] killermax2013 Скачать
2 | 1
Зарубежные сериалы [ 10.6 GB ] Видеть / See / Сезон: 1 / Серии: 1-7 из 8 [2019 WEB-DL 720p] [DVO] killermax2013 Скачать
1 | 0
Зарубежные сериалы [ 7.21 GB ] Видеть / See / Сезон: 1 / Серии: 1-8 из 8 [2019 WEB-DLRip] MVO [TVShows] bober100 Скачать
6 | 3
Зарубежные сериалы [ 13.24 GB ] Видеть / See / Сезон: 1 / Серии: 1-8 из 8 [2019 WEB-DL 720p] MVO [TVShows] bober100 Скачать
2 | 0


Последний раз редактировалось: bober100 (2019-12-10 07:59), всего редактировалось 5 раз(а)

28-11-2019 20:33  

Отключить всю рекламу на сайте


14-11-2019 08:44 Видеть Скачать торрент  

уже 4 я есть какая третья серия !piratbit.pw



    Дорогой пользователь! Огромная просьба, поблагодарите релизера, оцените раздачу и оставьте свои комментарий, если Вы скачали Видеть через торрент бесплатно! Внесите свою лепту в развитие PiratBit!
    Комментировать посты могут только пользователи прошедшие не сложную регистрацию
    Показать сообщения:    

    Видеть через торрент
    Скачать бесплатно Видеть
    Видеть скачать торрент
    Видеть смотреть онлайн
    Cкачать фильм Видеть бесплатно
    Видеть скачать торрент в хорошем качестве
    Видеть смотреть онлайн бесплатно в хорошем качестве


    Вы не можете начинать темы
    Вы не можете отвечать на сообщения
    Вы не можете редактировать свои сообщения
    Вы не можете удалять свои сообщения
    Вы не можете голосовать в опросах
    Вы не можете прикреплять файлы к сообщениям
    Вы можете скачивать файлы