новый адрес
Ссылка на приватное зеркало всего за 1$. Внимание количество ограничено!!!

iTunes

1+1

iTunes

мы

WEB-DL

1

iTunes

Чернобыль

iTunes

Ральф против интернета

Лицензия

ПШазам

Лицензия

Оно 2

Лицензия

30
pack

Вам бонус

ВАЖНО

!!Акция!!

Alien_RageХит недели

RePack

Resident Evil 21

ИГРА 18+

pack

RePack

jed

!!Акция!!

Alien_Rage

RePack

fifa19

RePack

Assassins Creed: Odyssey

RePack

NEED FOR SPEED™ PAYBACK

3 сезон

9 сезон

Бесстыжие 9 сезон

Все сериалы

все сериалы на PB.wtf

RePack

FAR CRY 5
Ребята, катастрофически не хватает 1900р. для оплаты серверов за Октябрь (всвязи с блокировками трафик упал в 3 раза), 1-2р., выручайте.
  

Мистер Робот / Mr. Robot / Сезон: 4 / Серии: 1-9 из 13 (Сэм Эсмейл) [2019, триллер, драма, криминал, WEB-DL 1080p] MVO [Lostfilm] piratbit.pw

Мистер Робот через торрент piratbit.pw

Качают: 1 [ 0 KB/s ]
Размер: 28.65 GB | Добавлен: 3 д. назад | Торрент скачан:0 раз
Скачать  

04-11-2019 12:36 Мистер Робот Скачать торрент  

Мистер Робот / Mr. Robot Год выпуска: 2019
Страна: США
Жанр: триллер, драма, криминал
Продолжительность: 00:50:00
Перевод: Профессиональный (многоголосый закадровый) | Lostfilm
Субтитры: Русские (Forced), Английские (SDH)

Режиссёр: Сэм Эсмейл

В ролях: Грэйс Гаммер (Доминик ДиПьерро), Б.Д. Вонг ("Белая Роза"), Рами Малек (Эллиот Алдерсон), Кристиан Слэйтер (Мистер Робот), Дэн Веркман, Джоуи Бэдэсс (Леон), Эван Уиттен (Юный Эллиот), Мартин Волстром (Тайрелл Уэллик), Майкл Кристофер (Филлип Прайс), Келемэт Мисипика

Описание: Летом 2015 года зрителям была представлена пилотная серия "Мистера Робота" - нового проекта USA Network. Психологическая драма про хакера Эллиота Алдерсона снискала такой успех у зрителей, что создатели во главе с Сэмом Эсмейлом получили зеленый свет сразу на два сезона. Остросюжетная криминальная драма, повествующая о хакере-интроверте, который борется со своими проблемами и недостатками всего современного западного общества, произвела настоящий фурор на телевидении. Романтика, сложные семейные взаимоотношения, политика, технологоцентричность, киберпреступления с уклоном в левый терроризм и психологические конфликты сделали "Мистера Робота" не только самым актуальным сериалом современности, но и позволили ему заработать лестное прозвище " quot;Бойцовский клуб quot; про хакеров".

Сюжет: Молодому программисту Эллиоту (Рами Малек), страдающему диссоциальным расстройством личности, тяжело находить контакт с другими людьми. Он не знает, что такое нормы общения и как вести себя в социуме. Помимо прочего, герой - талантливый хакер, чьи навыки пользуются большим спросом среди представителей фирм правительственного уровня, обеспокоенных безопасностью своей деятельности в интернете. Однажды на связь с Эллиотом выходит некий мистер Робот - анархист, хакер и лидер подпольного радикального движения, которое под прикрытием пафосных лозунгов жаждет сломать бесполезные устои прогнившей власти. Новый знакомый предлагает Эллиоту вступить в его таинственную организацию, чтобы использовать знания талантливого компьютерщика в борьбе с могущественными американскими корпорациями.



Качество: WEB-DL 1080p (AMAZON)
Контейнер: MKV

Видео: H.264/AVC, 1920 x 1080 (1.778:1), 23.976 fps, ~7630 kbps, ~0.153 bit/pixel
Аудио №1: Русский E-AC3/DD+ 5.1, 48 kHz, 640 kbps
Аудио №2: Русский AC3 5.1, 48 kHz, 384 kbps
Аудио №3: Английский E-AC3/DD+ 5.1, 48 kHz, 640 kbps


Реклама: отсутствует
Работа со звуком, субтитрами: itunestv@eniahd
Eng: During the Christmas season, Elliot and Mr. Robot make their return; Darlene deals with real trouble; Tyrell is bored; Dom becomes paranoid.
Rus:
Eng: elliot + darlene come together. dom gets dark army vibes. wtf is deus group? price has answers.
Rus:
Eng: whiterose has the feels. elliot gets owned by his own hack. an old foe chillz in wait.
Rus:
Eng: elliot, mrrobot, and tyrell walkin' in a winter wonderland. darlene meets a bad santa. dom is DTF.
Rus:
General
Unique ID : 147246946429784672719446632029450109820 (0x6EC6BAF739E0231405C786ACC28B837C)
Complete name : Mr.Robot.S04E01.401.Unauthorized.1080p.AMZN.WEB-DL.H.264.RUS.LF.DDP5.1-EniaHD.mkv
Format : Matroska
Format version : Version 4
File size : 3.96 GiB
Duration : 1 h 0 min
Overall bit rate : 9 298 kb/s
Movie name : Mr. Robot, Season 4 / 401 Unauthorized
Track name/Position : 1
Track name/Total : 13
Description : During the Christmas season, Elliot and Mr. Robot make their return; Darlene deals with real trouble; Tyrell is bored; Dom becomes paranoid.
Released date : 2019-10-07T02:00:00
Writing application : mkvmerge v40.0.0 ('Old Town Road + Pony') 64-bit
Writing library : libebml v1.3.9 + libmatroska v1.5.2
Cover : Yes
Attachments : small_cover.jpg / cover.jpg

Video
ID : 1
Format : AVC
Format/Info : Advanced Video Codec
Format profile : High@L4
Format settings : CABAC / 4 Ref Frames
Format settings, CABAC : Yes
Format settings, ReFrames : 4 frames
Codec ID : V_MPEG4/ISO/AVC
Duration : 1 h 0 min
Bit rate mode : Constant
Bit rate : 7 630 kb/s
Nominal bit rate : 10 000 kb/s
Width : 1 920 pixels
Height : 1 080 pixels
Display aspect ratio : 16:9
Frame rate mode : Constant
Frame rate : 23.976 (24000/1001) FPS
Color space : YUV
Chroma subsampling : 4:2:0
Bit depth : 8 bits
Scan type : Progressive
Bits/(Pixel*Frame) : 0.153
Stream size : 3.25 GiB (82%)
Language : English
Default : Yes
Forced : No
Color range : Limited
Color primaries : BT.709
Transfer characteristics : BT.709
Matrix coefficients : BT.709

Audio #1
ID : 2
Format : E-AC-3
Format/Info : Enhanced AC-3
Commercial name : Dolby Digital Plus
Codec ID : A_EAC3
Duration : 1 h 0 min
Bit rate mode : Constant
Bit rate : 640 kb/s
Channel(s) : 6 channels
Channel layout : L R C LFE Ls Rs
Sampling rate : 48.0 kHz
Frame rate : 31.250 FPS (1536 SPF)
Compression mode : Lossy
Stream size : 279 MiB (7%)
Title : E-AC3 5.1 @ 640kbps - MVO, Lostfilm
Language : Russian
Service kind : Complete Main
Default : Yes
Forced : No
Released date : 2019-10-09T06:23:39Z

Audio #2
ID : 3
Format : AC-3
Format/Info : Audio Coding 3
Commercial name : Dolby Digital
Codec ID : A_AC3
Duration : 1 h 0 min
Bit rate mode : Constant
Bit rate : 384 kb/s
Channel(s) : 6 channels
Channel layout : L R C LFE Ls Rs
Sampling rate : 48.0 kHz
Frame rate : 31.250 FPS (1536 SPF)
Bit depth : 16 bits
Compression mode : Lossy
Stream size : 168 MiB (4%)
Title : AC3 5.1 @ 384kbps - MVO, Lostfilm
Language : Russian
Service kind : Complete Main
Default : No
Forced : No
Released date : 2019-10-09T06:23:39Z

Audio #3
ID : 4
Format : E-AC-3
Format/Info : Enhanced AC-3
Commercial name : Dolby Digital Plus
Codec ID : A_EAC3
Duration : 1 h 0 min
Bit rate mode : Constant
Bit rate : 640 kb/s
Channel(s) : 6 channels
Channel layout : L R C LFE Ls Rs
Sampling rate : 48.0 kHz
Frame rate : 31.250 FPS (1536 SPF)
Compression mode : Lossy
Stream size : 279 MiB (7%)
Title : E-AC3 5.1 @ 640kbps - Original
Language : English
Service kind : Complete Main
Default : No
Forced : No

Text #1
ID : 5
Format : PGS
Muxing mode : zlib
Codec ID : S_HDMV/PGS
Codec ID/Info : Picture based subtitle format used on BDs/HD-DVDs
Duration : 9 s 885 ms
Bit rate : 1 376 kb/s
Count of elements : 50
Stream size : 1.62 MiB (0%)
Title : Forced
Language : Russian
Default : Yes
Forced : Yes

Text #2
ID : 6
Format : UTF-8
Codec ID : S_TEXT/UTF8
Codec ID/Info : UTF-8 Plain Text
Duration : 1 h 0 min
Bit rate : 65 b/s
Count of elements : 1143
Stream size : 28.9 KiB (0%)
Title : SDH
Language : English
Default : No
Forced : No

Text #3
ID : 7
Format : UTF-8
Codec ID : S_TEXT/UTF8
Codec ID/Info : UTF-8 Plain Text
Duration : 1 h 0 min
Bit rate : 56 b/s
Count of elements : 835
Stream size : 25.1 KiB (0%)
Language : English
Default : No
Forced : No
Когда раздача ведётся путём добавления новых серий, при каждом добавлении создётся новый торрент. Чтобы начать докачку новой серии, пользователям необходимо сделать следующее:
(1) остановить скачивание,
(2) удалить старый торрент у себя из клиента (старые серии удалять не надо),
(3) скачать новый торрент и запустить его у себя в клиенте вместо старого, при этом указать клиенту путь в старую папку, куда и должно происходить скачивание новых серий.
Ваш клиент при этом должен произвести хеширование (проверку) старой папки (если не производит сам - помогите ему сделать это), и будет докачивать только те серии, которых у вас ещё нет.Старые серии при этом не удаляются, а продолжают раздаваться!
Eсли вы уже удалили старые серии, то предотвратить повторную закачку старых серий можно, отжав галочку в соответсвующих местах при запуске нового торрента. По возможности, желательно не удалять старые серии как можно дольше, чтобы релизёр не столько продолжал раздавать старые серии, а смог сконцентрироваться на новых.
piratbit.pw



Скачать Мистер Робот через торрент https://img16.lostpic.net/2019/10/08/b3cb574e87d2c897f340b16ff14d8640.jpg Скачать фильм Мистер Робот через торрент бесплантно в хорошем качестве Описание: Летом 2015 года зрителям была представлена пилотная серия "Мистера Робота" - нового проекта USA Network. Психологическая драма ... 10 10 2
Торрент: Зарегистрирован [2019-12-07 14:39] · скачан: 0 раз
Статус: √ проверено
Размер: 28.65 GB
Как cкачать? Как скачать Мистер Робот через торрент | qTorrent

% Раздел Тема Автор DL S | L
Зарубежные сериалы [ 26.51 GB ] Мистер Робот / Mr. Robot / Сезон: 4 / Серии: 1-9 из 13 [2019 WEB-DL 1080p] MVO [TVShows] bober100 Скачать
1 | 0
Зарубежные сериалы [ 12.34 GB ] Мистер Робот / Mr. Robot / Сезон: 4 / Серии: 1-9 из 13 [2019 WEB-DL 720p] MVO [TVShows] bober100 Скачать
1 | 0
Зарубежные сериалы [ 15.2 GB ] Мистер Робот / Mr. Robot / Сезон: 4 / Серии: 1-9 из 13 [2019 WEB-DL 720p] MVO [NewStudio] bober100 Скачать
1 | 0
Зарубежные сериалы [ 11.66 GB ] Мистер Робот / Mr. Robot / Сезон: 4 / Серии: 1-9 из 13 [2019 WEB-DL 720p] MVO [Jaskier] bober100 Скачать
2 | 0
Зарубежные сериалы [ 6.27 GB ] Мистер Робот / Mr. Robot / Сезон: 4 / Серии: 1-9 из 13 [2019 WEB-DLRip] MVO [LostFilm] bober100 Скачать
2 | 0
Зарубежные сериалы [ 13.2 GB ] Мистер Робот / Mr. Robot / Сезон: 4 / Серии: 1-9 из 13 [2019 WEB-DL 720p] MVO [Lostfilm] bober100 Скачать
1 | 1

28-11-2019 20:33  

Отключить всю рекламу на сайте

    Дорогой пользователь! Огромная просьба, поблагодарите релизера, оцените раздачу и оставьте свои комментарий, если Вы скачали Мистер Робот через торрент бесплатно! Внесите свою лепту в развитие PiratBit!
    Комментировать посты могут только пользователи прошедшие не сложную регистрацию
    Показать сообщения:    

    Мистер Робот через торрент
    Скачать бесплатно Мистер Робот
    Мистер Робот скачать торрент
    Мистер Робот смотреть онлайн
    Cкачать фильм Мистер Робот бесплатно
    Мистер Робот скачать торрент в хорошем качестве
    Мистер Робот смотреть онлайн бесплатно в хорошем качестве


    Вы не можете начинать темы
    Вы не можете отвечать на сообщения
    Вы не можете редактировать свои сообщения
    Вы не можете удалять свои сообщения
    Вы не можете голосовать в опросах
    Вы не можете прикреплять файлы к сообщениям
    Вы можете скачивать файлы