Ссылка на приватное зеркало нашего сайта всего за 1$. Внимание количество ограничено!!!

2 сезон

iTunes

iTunes

1

iTunes

iTunes

iTunes

WEBRip

iTunes

30
pack

Вам бонус

ВАЖНО

!!Акция!!

Alien_RageХит недели

RePack

Horizon Zero Dawn

ИГРА 18+

pack

RePack

jed

!!Акция!!

Alien_Rage

RePack

fifa19

RePack

Assassins Creed: Odyssey

RePack

NEED FOR SPEED™ PAYBACK

4 сезон

9 сезон

Бесстыжие 9 сезон

Все сериалы

все сериалы на PB.wtf

RePack

FAR CRY 5
  

Храбрая сердцем / Brave (Марк Эндрюс, Бренда Чэпман, Стив Пурселл) [2012, Мультфильм, фэнтези, комедия, приключения, семейный, UHD BDRip 2160p] DUB (rus, ukr) [Лицензия] piratbit.pw

Храбрая сердцем через торрент piratbit.pw

Размер: 10.92 GB | Добавлен: 10 мес. назад | Торрент скачан:18 раз
Скачать  

03-11-2019 05:57 Храбрая сердцем Скачать торрент  

Храбрая сердцем / Brave
Год выпуска: 2012
Страна: США
Жанр: Мультфильм, фэнтези, комедия, приключения, семейный
Продолжительность: 01:34:13
Перевод: Дублированный | Лицензия
Субтитры: Русские, английские, украинские

Режиссер: Марк Эндрюс, Бренда Чэпман, Стив Пурселл

rating

В ролях: Робби Колтрейн, Келли Макдональд, Эмма Томпсон, Джули Уолтерс, Кевин МакКидд, Крэйг Фергюсон, Билли Коннолли

Описание: Испокон веков мифы и легенды окутывают загадочной пеленой живописные отроги Шотландских гор. Искусной лучнице Мериде приходится выбирать свой путь в жизни самостоятельно, и однажды она отказывается следовать древним традициям королевства, бросая вызов могущественным шотландским кланам и их предводителям: нескладному лорду МакГаффину, угрюмому лорду Макинтошу и сварливому лорду Дингволлу. Неосторожные поступки Мериды грозят повергнуть королевство в хаос, и тогда она отправляется за советом к эксцентричной отшельнице, которая вместо помощи накладывает на Мериду опасное заклятье. Юной принцессе предстоит полагаться только на собственную храбрость, чтобы преодолеть могущественное волшебство и победить самого страшного зверя из тех, что водятся в горных долинах.

Качество: UHD BDRip 2160p
Формат: MKV

Видео: HEVC HDR, 7406 Кбит/с, 3840x1606, 23.976 кадр/с, 10 Бит
Аудио#1: 48 kHz, AC3, 5.1, 448 Kbps | Лицензия | RUS |
Аудио#2: 48 kHz, AC3, 5.1, 448 Kbps | iTunes | UKR |
Аудио#3: 48 kHz, TrueHD, 7.1, 7817 Kbps | Оригинал | ENG |
Аудио#4: 48 kHz, AC3, 5.1, 448 Kbps | Оригинал | ENG |
скриншот  скриншот  скриншот  скриншот  

Общее
Уникальный идентификатор : 215268371496065290681289280626406080005 (0xA1F32E267620027BAB1DC6FB0C9A3E05)
Полное имя : D:\Передел\Brave.2012.BDRip.2160p.x265.10bit.HDR.Master5.mkv
Формат : Matroska
Версия формата : Version 4
Размер файла : 10,9 Гбайт
Продолжительность : 1 ч. 34 м.
Режим общего битрейта : Переменный
Общий поток : 16,6 Мбит/сек
Название фильма : Brave.2012.BDRip.2160p.x265.10bit.HDR.Master5
Дата кодирования : UTC 2019-11-02 20:27:05
Программа кодирования : mkvmerge v7.9.0 ('Birds') 64bit
Библиотека кодирования : libebml v1.3.1 + libmatroska v1.4.2

Видео
Идентификатор : 1
Формат : HEVC
Формат/Информация : High Efficiency Video Coding
Коммерческое название : HDR10
Профиль формата : Main 10@L5.1@High
Идентификатор кодека : V_MPEGH/ISO/HEVC
Продолжительность : 1 ч. 34 м.
Битрейт : 7406 Кбит/сек
Ширина : 3840 пикселей
Высота : 1606 пикселей
Соотношение сторон : 2,40:1
Режим частоты кадров : Постоянный
Частота кадров : 23,976 (24000/1001) кадра/сек
Цветовое пространство : YUV
Субдискретизация насыщенности : 4:2:0 (Type 2)
Битовая глубина : 10 бит
Бит/(Пиксели*Кадры) : 0.050
Размер потока : 4,87 Гбайт (45%)
Заголовок : Brave.2012.BDRip.2160p.x265.10bit.HDR.Master5
Библиотека кодирования : x265 3.1+11-de920e0a3183:[Windows][GCC 6.3.0][64 bit] 10bit
Настройки программы : cpuid=1111039 / frame-threads=4 / numa-pools=20 / wpp / no-pmode / no-pme / no-psnr / no-ssim / log-level=2 / input-csp=1 / input-res=3840x1606 / interlace=0 / total-frames=135518 / level-idc=51 / high-tier=1 / uhd-bd=0 / ref=4 / no-allow-non-conformance / repeat-headers / annexb / aud / hrd / info / hash=0 / no-temporal-layers / no-open-gop / min-keyint=1 / keyint=24 / gop-lookahead=0 / bframes=4 / b-adapt=2 / b-pyramid / bframe-bias=0 / rc-lookahead=25 / lookahead-slices=4 / scenecut=40 / radl=0 / no-splice / no-intra-refresh / ctu=64 / min-cu-size=8 / rect / no-amp / max-tu-size=32 / tu-inter-depth=1 / tu-intra-depth=1 / limit-tu=0 / rdoq-level=2 / dynamic-rd=0.00 / no-ssim-rd / signhide / no-tskip / nr-intra=0 / nr-inter=0 / no-constrained-intra / no-strong-intra-smoothing / max-merge=3 / limit-refs=3 / limit-modes / me=3 / subme=3 / merange=57 / temporal-mvp / no-hme / weightp / no-weightb / no-analyze-src-pics / deblock=-3:-3 / no-sao / no-sao-non-deblock / rd=4 / no-early-skip / rskip / no-fast-intra / no-tskip-fast / no-cu-lossless / no-b-intra / no-splitrd-skip / rdpenalty=0 / psy-rd=2.00 / psy-rdoq=1.00 / no-rd-refine / no-lossless / cbqpoffs=0 / crqpoffs=0 / rc=crf / crf=17.0 / qcomp=0.60 / qpstep=4 / stats-write=0 / stats-read=0 / vbv-maxrate=160000 / vbv-bufsize=160000 / vbv-init=0.9 / crf-max=0.0 / crf-min=0.0 / ipratio=1.40 / pbratio=1.30 / aq-mode=2 / aq-strength=1.00 / cutree / zone-count=0 / no-strict-cbr / qg-size=32 / no-rc-grain / qpmax=69 / qpmin=0 / no-const-vbv / sar=1 / overscan=0 / videoformat=5 / range=0 / colorprim=9 / transfer=16 / colormatrix=9 / chromaloc=1 / chromaloc-top=2 / chromaloc-bottom=2 / display-window=0 / master-display=G(13250,34500)B(7500,3000)R(34000,16000)WP(15635,16450)L(10000000,0)cll=0,0 / min-luma=0 / max-luma=1023 / log2-max-poc-lsb=8 / vui-timing-info / vui-hrd-info / slices=1 / no-opt-qp-pps / no-opt-ref-list-length-pps / no-multi-pass-opt-rps / scenecut-bias=0.05 / no-opt-cu-delta-qp / no-aq-motion / hdr / hdr-opt / no-dhdr10-opt / no-idr-recovery-sei / analysis-reuse-level=5 / scale-factor=0 / refine-intra=0 / refine-inter=0 / refine-mv=0 / refine-ctu-distortion=0 / no-limit-sao / ctu-info=0 / no-lowpass-dct / refine-analysis-type=0 / copy-pic=1 / max-ausize-factor=1.0 / no-dynamic-refine / no-single-sei / no-hevc-aq / no-svt / no-field / qp-adaptation-range=1.00
Default : Да
Forced : Нет
Цветовой диапазон : Limited
Основные цвета : BT.2020
Характеристики трансфера : PQ
Коэффициенты матрицы : BT.2020 non-constant
MasteringDisplay_ColorPrimaries : Display P3
MasteringDisplay_Luminance : min: 0.0000 cd/m2, max: 1000 cd/m2

Аудио #1
Идентификатор : 2
Формат : AC-3
Формат/Информация : Audio Coding 3
Коммерческое название : Dolby Digital
Идентификатор кодека : A_AC3
Продолжительность : 1 ч. 34 м.
Вид битрейта : Постоянный
Битрейт : 448 Кбит/сек
Каналы : 6 каналов
Channel layout : L R C LFE Ls Rs
Частота : 48,0 КГц
Частота кадров : 31,250 кадров/сек (1536 SPF)
Битовая глубина : 16 бит
Метод сжатия : С потерями
Размер потока : 302 Мбайт (3%)
Заголовок : AC3, 6 ch, 48 kHz, 448 kbps, Dubbing bBD CEEB
Язык : Russian
ServiceKind/String : Complete Main
Default : Да
Forced : Нет

Аудио #2
Идентификатор : 3
Формат : AC-3
Формат/Информация : Audio Coding 3
Коммерческое название : Dolby Digital
Идентификатор кодека : A_AC3
Продолжительность : 1 ч. 34 м.
Вид битрейта : Постоянный
Битрейт : 448 Кбит/сек
Каналы : 6 каналов
Channel layout : L R C LFE Ls Rs
Частота : 48,0 КГц
Частота кадров : 31,250 кадров/сек (1536 SPF)
Битовая глубина : 16 бит
Метод сжатия : С потерями
Размер потока : 302 Мбайт (3%)
Заголовок : AC3, 6 ch, 48 kHz, 448 kbps, Dubbing bBD CEEB
Язык : Ukrainian
ServiceKind/String : Complete Main
Default : Нет
Forced : Нет

Аудио #3
Идентификатор : 4
Формат : MLP FBA 16-ch
Формат/Информация : Meridian Lossless Packing FBA with 16-channel presentation
Коммерческое название : Dolby TrueHD with Dolby Atmos
Идентификатор кодека : A_TRUEHD
Продолжительность : 1 ч. 33 м.
Вид битрейта : Переменный
Битрейт : 7817 Кбит/сек
Максимальный битрейт : 10,9 Мбит/сек
Каналы : 8 каналов
Channel layout : L R C LFE Ls Rs Lb Rb
Частота : 48,0 КГц
Частота кадров : 1200,000 кадров/сек (40 SPF)
Метод сжатия : Без потерь
Размер потока : 5,12 Гбайт (47%)
Заголовок : Original
Язык : English
Default : Нет
Forced : Нет
Number of dynamic objects : 13
Bed channel count : 1 канал
Bed channel configuration : LFE

Аудио #4
Идентификатор : 5
Формат : AC-3
Формат/Информация : Audio Coding 3
Коммерческое название : Dolby Digital
Идентификатор кодека : A_AC3
Продолжительность : 1 ч. 34 м.
Вид битрейта : Постоянный
Битрейт : 448 Кбит/сек
Каналы : 6 каналов
Channel layout : L R C LFE Ls Rs
Частота : 48,0 КГц
Частота кадров : 31,250 кадров/сек (1536 SPF)
Битовая глубина : 16 бит
Метод сжатия : С потерями
Размер потока : 302 Мбайт (3%)
Заголовок : AC3, 6 ch, 48 kHz, 448 kbps, Original
Язык : English
ServiceKind/String : Complete Main
Default : Нет
Forced : Нет

Текст #1
Идентификатор : 6
Формат : UTF-8
Идентификатор кодека : S_TEXT/UTF8
Идентификатор кодека/Информация : UTF-8 Plain Text
Продолжительность : 1 ч. 32 м.
Битрейт : 59 бит/сек
ElementCount : 886
Размер потока : 40,4 Кбайт (0%)
Заголовок : SRT, Full bBD CEEB
Язык : Russian
Default : Нет
Forced : Нет

Текст #2
Идентификатор : 7
Формат : UTF-8
Идентификатор кодека : S_TEXT/UTF8
Идентификатор кодека/Информация : UTF-8 Plain Text
Продолжительность : 1 ч. 32 м.
Битрейт : 62 бит/сек
ElementCount : 886
Размер потока : 42,5 Кбайт (0%)
Заголовок : SRT, Full bBD CEEB
Язык : Ukrainian
Default : Нет
Forced : Нет

Текст #3
Идентификатор : 8
Формат : UTF-8
Идентификатор кодека : S_TEXT/UTF8
Идентификатор кодека/Информация : UTF-8 Plain Text
Продолжительность : 1 ч. 32 м.
Битрейт : 37 бит/сек
ElementCount : 876
Размер потока : 25,6 Кбайт (0%)
Заголовок : SRT, Full
Язык : English
Default : Нет
Forced : Нет

Текст #4
Идентификатор : 9
Формат : UTF-8
Идентификатор кодека : S_TEXT/UTF8
Идентификатор кодека/Информация : UTF-8 Plain Text
Продолжительность : 1 ч. 32 м.
Битрейт : 53 бит/сек
ElementCount : 1395
Размер потока : 36,4 Кбайт (0%)
Заголовок : SRT, (SDH)
Язык : English
Default : Нет
Forced : Нет

Меню
00:00:00.000 : ru:01. День рождения
00:04:22.846 : ru:02. Мерида
00:09:17.432 : ru:03. Семейная трапеза
00:12:53.356 : ru:04. Легенды учат
00:14:00.256 : ru:05. Просто послушай
00:16:10.469 : ru:06. Подготовка
00:17:36.681 : ru:07. Знакомство с лордами
00:22:55.791 : ru:08. Игры
00:27:22.891 : ru:09. Ссора
00:28:51.229 : ru:10. Мерида убегает
00:30:54.853 : ru:11. Искусная резчица
00:34:00.372 : ru:12. Заклятье
00:36:03.495 : ru:13. Кекс
00:39:06.928 : ru:14. Превращение
00:41:55.096 : ru:15. Охота в замке
00:43:27.980 : ru:16. Тройняшки сбивают с пути
00:47:05.740 : ru:17. Клочья
00:48:22.358 : ru:18. Послание из котла
00:51:04.061 : ru:19. Память
00:52:33.859 : ru:20. Рассвет
00:54:01.155 : ru:21. Завтрак
00:54:45.699 : ru:22. Рыбалка с мамой
00:57:30.864 : ru:23. Погоня
00:59:00.162 : ru:24. Руины
01:02:48.181 : ru:25. Блокада
01:03:27.387 : ru:26. Помощь мамы
01:09:57.735 : ru:27. Гобелен
01:10:37.275 : ru:28. Медведь в замке
01:12:35.726 : ru:29. Отчаяние
01:13:39.498 : ru:30. Ключ
01:15:35.489 : ru:31. К спасению
01:16:59.073 : ru:32. Противоборство
01:17:37.111 : ru:33. Медвежья схватка
01:19:48.200 : ru:34. Второй рассвет
01:23:16.783 : ru:35. Эпилог
01:24:38.657 : ru:36. Финальные титры
01:33:27.602 : ru:37. Доставка

piratbit.pw



Скачать Храбрая сердцем через торрент https://img16.lostpic.net/2019/09/10/f9629884a65a297064cf8dc3498fef05.jpg Скачать фильм Храбрая сердцем через торрент бесплантно в хорошем качестве Описание: Испокон веков мифы и легенды окутывают загадочной пеленой живописные отроги Шотландских гор. Искусной лучнице Мериде приходится ... 10 10 3
Торрент: Зарегистрирован [2019-11-03 05:57] · скачан: 18 раз
Статус: √ проверено
Размер: 10.92 GB
Как cкачать? Как скачать Храбрая сердцем через торрент | qTorrent

% Раздел Тема Автор DL S | L
Ultra HD (UHD: 2K, 4K, 8K) [ 45.8 GB ] Храбрая сердцем / Brave [2012 Мультфильм UHD BDRemux 2160p] DUB [] +3xAVO bober100 Скачать
1 | 0
Зарубежные Мультфильмы (BDRip 1080p, 720p, Blu-ray, BD-Remux) [ 7.99 GB ] Храбрая сердцем / Brave [2012 мультфильм BDRip 720p] DUB + 3xAVO sheker187 Скачать
1 | 0
Ultra HD (UHD: 2K, 4K, 8K) — видео сверхвысокой чёткости [ 72.09 GB ] Храброе сердце / Braveheart [1995 военный биография UHD BDRemux 2160p] DUB [Dolby Vision] sheker187 Скачать
1 | 0
Фильмы [HD 720p, 1080p] (Хороший звук DUB, MVO) [ 7.8 GB ] Храброе сердце / Braveheart [1995 военный биография история BDRip 1080p HEVC ()] Мичман37 Скачать
1 | 0
Ultra HD (UHD: 2K, 4K, 8K) — видео сверхвысокой чёткости [ 119.39 GB ] Храброе сердце / Braveheart [1995 военный биография UHD Blu-Ray 2160p] DUB + 9xMVO + 3xAVO [HDR + Dolby Vision] [Custom] sheker187 Скачать
1 | 0
Зарубежные Мультфильмы (BDRip 1080p, 720p, Blu-ray, BD-Remux) [ 4.19 GB ] Храбрая сердцем / Brave [2012 мультфильм BDRip 1080p HEVC ()] Мичман37 Скачать
2 | 0
Мультфильмы (48-60 fps) [ 4.22 GB ] Храбрая сердцем / Brave [2012 мультфильм BDRip 720p + Оригинал| 60 FPS] Trava-HD Скачать
1 | 0

28-11-2019 20:33  

Отключить всю рекламу на сайте

    Дорогой пользователь! Огромная просьба, поблагодарите релизера, оцените раздачу и оставьте свои комментарий, если Вы скачали Храбрая сердцем через торрент бесплатно! Внесите свою лепту в развитие PiratBit!
    Комментировать посты могут только пользователи прошедшие не сложную регистрацию
    Показать сообщения:    

    Храбрая сердцем через торрент
    Скачать бесплатно Храбрая сердцем
    Храбрая сердцем скачать торрент
    Храбрая сердцем смотреть онлайн
    Cкачать фильм Храбрая сердцем бесплатно
    Храбрая сердцем скачать торрент в хорошем качестве
    Храбрая сердцем смотреть онлайн бесплатно в хорошем качестве


    Вы не можете начинать темы
    Вы не можете отвечать на сообщения
    Вы не можете редактировать свои сообщения
    Вы не можете удалять свои сообщения
    Вы не можете голосовать в опросах
    Вы не можете прикреплять файлы к сообщениям
    Вы можете скачивать файлы