Ссылка на приватное зеркало нашего сайта всего за 1$. Внимание количество ограничено!!!

2 сезон

iTunes

1 сезон

1

iTunes

iTunes

iTunes

1 сезон

RePack

30

ИГРА 18+

pack

ВАЖНО

!!Акция!!

Alien_RageХит недели

RePack

MK11
pack

Забери бонус

RePack

jed

!!Акция!!

Alien_Rage

RePack

fifa19

RePack

Assassins Creed: Odyssey

RePack

NEED FOR SPEED™ PAYBACK

4 сезон

9 сезон

Бесстыжие 9 сезон

Все сериалы

все сериалы на PB.wtf

RePack

FAR CRY 5
  

Багдадский вор / The Thief of Bagdad (Рауль Уолш / Raoul Walsh) [1924, фэнтези, сказка, TVRip] [Укороченная версия фильма] [VO] (Пифагор) piratbit.pw

Багдадский вор через торрент piratbit.pw

Размер: 3.76 GB | Добавлен: 11 мес. назад | Торрент скачан:4 раза
Скачать  

30-10-2019 13:22 Багдадский вор Скачать торрент  



Багдадский вор / The Thief of Bagdad

Укороченная ТВ версия фильма

Год выпуска: 1924
Страна: США
Жанр: фэнтези, сказка
Продолжительность: 01:12:32
Перевод: Студийный (одноголосый закадровый) Студия Пифагор по заказу ТК Культура (1999)
Субтитры: нет
Режиссер: Рауль Уолш / Raoul Walsh
В ролях: Дуглас Фэрбенкс, Шнитц Эдвардс, Чарльз Белчер, Джуланн Джонстон, Сёдзин Камияма, Анна Мэй Вонг, Брэндон Херст, Тоте Ду Кроу, Ноубл Джонсон, Сэм Бэйкер

Описание: Вор влюбляется в дочь Халифа. Халиф соглашается отдать за него свою дочь при условии, что вор принесёт ему величайшее сокровище не позже, чем через семь месяцев. Вор отправляется в путешествие, в котором сталкивается со сказочными существами и магией.

rating
Качество видео: TVRip
Формат видео: MPG
Видео: 720x576 (4:3) 25.000 fps, MPEG-2 Video, ~7 027 Kbps, 0.678 bits/pixel
Аудио: Русский, 48.0 KHz, AC3, 2 ch, 256 Kbps



General
Complete name : C:\Багдадский вор (1924)(т.к. Культура)(Серый75).mpg
Format : MPEG-PS
File size : 3.76 GiB
Duration : 1h 12mn
Overall bit rate mode : Variable
Overall bit rate : 7 427 Kbps
Writing library : (c) 1998-2012 Womble Multimedia, Inc. / MPEG Video Wizard DVD 5.0.1.100 (03/2011) / Aug 9 2012

Video
ID : 224 (0xE0)
Format : MPEG Video
Format version : Version 2
Format profile : Main@Main
Format settings, BVOP : Yes
Format settings, Matrix : Custom
Format settings, GOP : M=3, N=12
Duration : 1h 12mn
Bit rate mode : Variable
Bit rate : 7 023 Kbps
Maximum bit rate : 9 500 Kbps
Width : 720 pixels
Height : 576 pixels
Display aspect ratio : 4:3
Frame rate : 25.000 fps
Standard : PAL
Color space : YUV
Chroma subsampling : 4:2:0
Bit depth : 8 bits
Scan type : Interlaced
Scan order : Top Field First
Compression mode : Lossy
Bits/(Pixel*Frame) : 0.677
Time code of first frame : 00:00:00:00
Time code source : Group of pictures header
Stream size : 3.56 GiB (95%)
Writing library : (c) 1998-2012 Womble Multimedia, Inc. / MPEG Video Wizard DVD 5.0.1.100 (03/2011) / Aug 9 2012

Audio
ID : 189 (0xBD)-128 (0x80)
Format : AC-3
Format/Info : Audio Coding 3
Mode extension : CM (complete main)
Format settings, Endianness : Big
Muxing mode : DVD-Video
Duration : 1h 12mn
Bit rate mode : Constant
Bit rate : 256 Kbps
Channel(s) : 2 channels
Channel positions : Front: L R
Sampling rate : 48.0 KHz
Bit depth : 16 bits
Compression mode : Lossy
Delay relative to video : -80ms
Stream size : 133 MiB (3%)

Menu
скриншот  скриншот  скриншот  скриншот  
piratbit.pw



Скачать Багдадский вор через торрент https://i3.imageban.ru/out/2019/10/20/7c3645e843a561362d2e485ae420a167.jpg Скачать фильм Багдадский вор через торрент бесплантно в хорошем качестве Описание: Вор влюбляется в дочь Халифа. Халиф соглашается отдать за него свою дочь при условии, что вор принесёт ему величайшее сокровище ... 10 10 1
Торрент: Зарегистрирован [2019-10-30 13:22] · скачан: 4 раз
Статус: √ проверено
Размер: 3.76 GB
Как cкачать? Как скачать Багдадский вор через торрент | qTorrent

% Раздел Тема Автор DL S | L
Классика зарубежного кино [ 7.24 GB ] Багдадский вор / The Thief of Bagdad [1940 BDRip 720p] MVO + VO lesnik125 Скачать
1 | 0
Классика зарубежного кино [ 1.37 GB ] Багдадский вор / The Thief of Bagdad [1940 DVDRip ] DJERG Скачать
1 | 0
Фильмы (DVD фильмы) [ 4.35 GB ] Багдадский вор / The Thief of Bagdad [1940 DVD5 Пиратка] BISO Скачать
1 | 0

28-11-2019 20:33  

Отключить всю рекламу на сайте

    Дорогой пользователь! Огромная просьба, поблагодарите релизера, оцените раздачу и оставьте свои комментарий, если Вы скачали Багдадский вор через торрент бесплатно! Внесите свою лепту в развитие PiratBit!
    Комментировать посты могут только пользователи прошедшие не сложную регистрацию
    Показать сообщения:    

    Багдадский вор через торрент
    Скачать бесплатно Багдадский вор
    Багдадский вор скачать торрент
    Багдадский вор смотреть онлайн
    Cкачать фильм Багдадский вор бесплатно
    Багдадский вор скачать торрент в хорошем качестве
    Багдадский вор смотреть онлайн бесплатно в хорошем качестве


    Вы не можете начинать темы
    Вы не можете отвечать на сообщения
    Вы не можете редактировать свои сообщения
    Вы не можете удалять свои сообщения
    Вы не можете голосовать в опросах
    Вы не можете прикреплять файлы к сообщениям
    Вы можете скачивать файлы