Marvel's Avengers Deluxe Edition (супер цена) 159р. Внимание количество ограничено!!!

2 сезон

iTunes

iTunes

1

iTunes

iTunes

iTunes

WEBRip

iTunes

30
pack

Новость дня

ВАЖНО

!!Акция!!

Alien_RageХит недели

RePack

Horizon Zero Dawn

ИГРА 18+

pack

RePack

jed

!!Акция!!

Alien_Rage

RePack

fifa19

RePack

Assassins Creed: Odyssey

RePack

NEED FOR SPEED™ PAYBACK

4 сезон

9 сезон

Бесстыжие 9 сезон

Все сериалы

все сериалы на PB.wtf

RePack

FAR CRY 5
  

Рапунцель: Запутанная история / Tangled (Натан Грено, Байрон Ховард) [2010, Мультфильм, мюзикл, фэнтези, мелодрама, комедия, UHD BDRip 2160p] DUB [Лицензия] +2xAVO piratbit.pw

Рапунцель: Запутанная история через торрент piratbit.pw

Размер: 14.92 GB | Добавлен: 10 мес. назад | Торрент скачан:23 раза
Скачать  

28-10-2019 05:51 Рапунцель: Запутанная история Скачать торрент  

Рапунцель: Запутанная история / Tangled
Год выпуска: 2010
Страна: США
Студия: Walt Disney Animation Studios, Walt Disney Pictures
Жанр: Мультфильм, мюзикл, фэнтези, мелодрама, комедия, полнометражный
Продолжительность: 01:40:57
Перевод:

#1: Дублированный | Лицензия
#2: Авторский | Сербин
#3: Авторский | Гаврилов

Субтитры: Русские (Full), английские

Режиссер: Натан Грено, Байрон Ховард

rating

В ролях: Мэнди Мур, Закари Ливай, Донна Мёрфи, Рон Перлман, М. К. Гейни, Джеффри Тэмбор, Брэд Гэррет, Пол Ф. Томпкинс, Ричард Кил, Делани Роуз Стейн

Описание: "Столько дней у окна сидела, столько лет мучилась, ждала! Я жила и не замечала, как была слепа..." А как же иначе, если за все 18 лет, так и не удалось покинуть свою высокую башню? Ведь мама предупредила, что мир жесток и коварен, а хорошие девочки, как известно, должны маму слушаться! Даже если у них удивительные странные светящиеся волосы, даже если внезапно оказавшийся рядом симпатяга-авантюрист предлагает помочь исполнить заветную мечту, что живет в глубине души вопреки всему! А ради исполнения такой мечты всегда приходится чем-то жертвовать, не правда ли?!... По мотивам сказки братьев Гримм «Рапунцель».

Качество: UHD BDRip 2160p
Формат: MKV

Видео: HEVC HDR, 8068 Кбит/с, 3840x2160, 23.976 кадр/с, 10 Бит
Аудио #01: 48 kHz, AC3, 5.1, 640 Kbps | Лицензия | RUS |
Аудио #02: 48 kHz, DTS-HD HRA, 7.1, 2046 Kbps | Сербин | RUS |
Аудио #03: 48 kHz, DTS-HD HRA, 7.1, 2046 Kbps | Гаврилов | RUS |
Аудио #04: 48 kHz, TrueHD, 7.1, 7753 Kbps | Оригинал | ENG |
Аудио #05: 48 kHz, AC3, 5.1, 640 Kbps | Оригинал | ENG |
скриншот  скриншот  скриншот  

скриншот  скриншот  скриншот  

Общее
Уникальный идентификатор : 222337693143660785916569192368376270726 (0xA744AE9E0C886E2782A68DD6045E4F86)
Полное имя : D:\Передел\Tangled.2010.2160p.UHD.BDRip.HDR.x265.10bit.Master5.mkv
Формат : Matroska
Версия формата : Version 4
Размер файла : 14,9 Гбайт
Продолжительность : 1 ч. 40 м.
Режим общего битрейта : Переменный
Общий поток : 21,2 Мбит/сек
Название фильма : Tangled.2010.2160p.UHD.BDRip.HDR.x265.10bit.Master5
Дата кодирования : UTC 2019-10-27 17:20:36
Программа кодирования : mkvmerge v7.9.0 ('Birds') 64bit
Библиотека кодирования : libebml v1.3.1 + libmatroska v1.4.2

Видео
Идентификатор : 1
Формат : HEVC
Формат/Информация : High Efficiency Video Coding
Коммерческое название : HDR10
Профиль формата : Main 10@L5.1@High
Идентификатор кодека : V_MPEGH/ISO/HEVC
Продолжительность : 1 ч. 40 м.
Битрейт : 8068 Кбит/сек
Ширина : 3840 пикселей
Высота : 2160 пикселей
Соотношение сторон : 16:9
Режим частоты кадров : Постоянный
Частота кадров : 23,976 (24000/1001) кадра/сек
Цветовое пространство : YUV
Субдискретизация насыщенности : 4:2:0 (Type 2)
Битовая глубина : 10 бит
Бит/(Пиксели*Кадры) : 0.041
Размер потока : 5,65 Гбайт (38%)
Заголовок : Tangled.2010.2160p.UHD.BDRip.HDR.x265.10bit.Master5
Библиотека кодирования : x265 3.2+8-7fc1f6ef2b96:[Windows][GCC 6.3.0][64 bit] 10bit
Настройки программы : cpuid=1111039 / frame-threads=4 / numa-pools=20 / wpp / no-pmode / no-pme / no-psnr / no-ssim / log-level=2 / input-csp=1 / input-res=3840x2160 / interlace=0 / total-frames=144279 / level-idc=51 / high-tier=1 / uhd-bd=1 / ref=4 / no-allow-non-conformance / repeat-headers / annexb / aud / hrd / info / hash=0 / no-temporal-layers / no-open-gop / min-keyint=1 / keyint=24 / gop-lookahead=0 / bframes=4 / b-adapt=2 / b-pyramid / bframe-bias=0 / rc-lookahead=25 / lookahead-slices=4 / scenecut=40 / radl=0 / no-splice / no-intra-refresh / ctu=64 / min-cu-size=8 / rect / no-amp / max-tu-size=32 / tu-inter-depth=1 / tu-intra-depth=1 / limit-tu=0 / rdoq-level=2 / dynamic-rd=0.00 / no-ssim-rd / signhide / no-tskip / nr-intra=0 / nr-inter=0 / no-constrained-intra / no-strong-intra-smoothing / max-merge=3 / limit-refs=3 / limit-modes / me=3 / subme=3 / merange=57 / temporal-mvp / no-frame-dup / no-hme / weightp / no-weightb / no-analyze-src-pics / deblock=-3:-3 / no-sao / no-sao-non-deblock / rd=4 / selective-sao=0 / no-early-skip / rskip / no-fast-intra / no-tskip-fast / no-cu-lossless / no-b-intra / no-splitrd-skip / rdpenalty=0 / psy-rd=2.00 / psy-rdoq=1.00 / no-rd-refine / no-lossless / cbqpoffs=0 / crqpoffs=0 / rc=crf / crf=17.0 / qcomp=0.60 / qpstep=4 / stats-write=0 / stats-read=0 / vbv-maxrate=160000 / vbv-bufsize=160000 / vbv-init=0.9 / crf-max=0.0 / crf-min=0.0 / ipratio=1.40 / pbratio=1.30 / aq-mode=1 / aq-strength=1.00 / cutree / zone-count=0 / no-strict-cbr / qg-size=32 / no-rc-grain / qpmax=69 / qpmin=0 / no-const-vbv / sar=1 / overscan=0 / videoformat=5 / range=0 / colorprim=9 / transfer=16 / colormatrix=9 / chromaloc=1 / chromaloc-top=2 / chromaloc-bottom=2 / display-window=0 / master-display=G(13250,34500)B(7500,3000)R(34000,16000)WP(15635,16450)L(10000000,1) / cll=0,0 / min-luma=0 / max-luma=1023 / log2-max-poc-lsb=8 / vui-timing-info / vui-hrd-info / slices=1 / no-opt-qp-pps / no-opt-ref-list-length-pps / no-multi-pass-opt-rps / scenecut-bias=0.05 / no-opt-cu-delta-qp / no-aq-motion / hdr / hdr-opt / no-dhdr10-opt / no-idr-recovery-sei / analysis-reuse-level=5 / scale-factor=0 / refine-intra=0 / refine-inter=0 / refine-mv=1 / refine-ctu-distortion=0 / no-limit-sao / ctu-info=0 / no-lowpass-dct / refine-analysis-type=0 / copy-pic=1 / max-ausize-factor=1.0 / no-dynamic-refine / no-single-sei / no-hevc-aq / no-svt / no-field / qp-adaptation-range=1.00
Default : Да
Forced : Нет
Цветовой диапазон : Limited
Основные цвета : BT.2020
Характеристики трансфера : PQ
Коэффициенты матрицы : BT.2020 non-constant
MasteringDisplay_ColorPrimaries : Display P3
MasteringDisplay_Luminance : min: 0.0001 cd/m2, max: 1000 cd/m2

Аудио #1
Идентификатор : 2
Формат : AC-3
Формат/Информация : Audio Coding 3
Коммерческое название : Dolby Digital
Идентификатор кодека : A_AC3
Продолжительность : 1 ч. 40 м.
Вид битрейта : Постоянный
Битрейт : 640 Кбит/сек
Каналы : 6 каналов
Channel layout : L R C LFE Ls Rs
Частота : 48,0 КГц
Частота кадров : 31,250 кадров/сек (1536 SPF)
Битовая глубина : 16 бит
Метод сжатия : С потерями
Размер потока : 459 Мбайт (3%)
Заголовок : Dub License
Язык : Russian
ServiceKind/String : Complete Main
Default : Да
Forced : Да

Аудио #2
Идентификатор : 3
Формат : DTS XBR
Формат/Информация : Digital Theater Systems
Коммерческое название : DTS-HD High Resolution Audio
Идентификатор кодека : A_DTS
Продолжительность : 1 ч. 40 м.
Вид битрейта : Постоянный
Битрейт : 2046 Кбит/сек
Каналы : 8 каналов
Channel layout : C L R LFE Lb Rb Lss Rss
Частота : 48,0 КГц
Частота кадров : 93,750 кадра/сек (512 SPF)
Битовая глубина : 24 бит
Метод сжатия : С потерями
Размер потока : 1,44 Гбайт (10%)
Заголовок : AVO Сербин
Язык : Russian
Default : Нет
Forced : Нет

Аудио #3
Идентификатор : 4
Формат : DTS XBR
Формат/Информация : Digital Theater Systems
Коммерческое название : DTS-HD High Resolution Audio
Идентификатор кодека : A_DTS
Продолжительность : 1 ч. 40 м.
Вид битрейта : Постоянный
Битрейт : 2046 Кбит/сек
Каналы : 8 каналов
Channel layout : C L R LFE Lb Rb Lss Rss
Частота : 48,0 КГц
Частота кадров : 93,750 кадра/сек (512 SPF)
Битовая глубина : 24 бит
Метод сжатия : С потерями
Размер потока : 1,44 Гбайт (10%)
Заголовок : AVO Гаврилов
Язык : Russian
Default : Нет
Forced : Нет

Аудио #4
Идентификатор : 5
Формат : MLP FBA 16-ch
Формат/Информация : Meridian Lossless Packing FBA with 16-channel presentation
Коммерческое название : Dolby TrueHD with Dolby Atmos
Идентификатор кодека : A_TRUEHD
Продолжительность : 1 ч. 40 м.
Вид битрейта : Переменный
Битрейт : 7753 Кбит/сек
Максимальный битрейт : 9480 Кбит/сек
Каналы : 8 каналов
Channel layout : L R C LFE Ls Rs Lb Rb
Частота : 48,0 КГц
Частота кадров : 1200,000 кадров/сек (40 SPF)
Метод сжатия : Без потерь
Размер потока : 5,43 Гбайт (36%)
Заголовок : Original
Язык : English
Default : Нет
Forced : Нет
Number of dynamic objects : 13
Bed channel count : 1 канал
Bed channel configuration : LFE

Аудио #5
Идентификатор : 6
Формат : AC-3
Формат/Информация : Audio Coding 3
Коммерческое название : Dolby Digital
Идентификатор кодека : A_AC3
Продолжительность : 1 ч. 40 м.
Вид битрейта : Постоянный
Битрейт : 640 Кбит/сек
Каналы : 6 каналов
Channel layout : L R C LFE Ls Rs
Частота : 48,0 КГц
Частота кадров : 31,250 кадров/сек (1536 SPF)
Битовая глубина : 16 бит
Метод сжатия : С потерями
Размер потока : 459 Мбайт (3%)
Язык : English
ServiceKind/String : Complete Main
Default : Нет
Forced : Нет

Текст #1
Идентификатор : 7
Формат : UTF-8
Идентификатор кодека : S_TEXT/UTF8
Идентификатор кодека/Информация : UTF-8 Plain Text
Продолжительность : 1 ч. 30 м.
Битрейт : 76 бит/сек
ElementCount : 924
Размер потока : 50,9 Кбайт (0%)
Заголовок : Full
Язык : Russian
Default : Нет
Forced : Нет

Текст #2
Идентификатор : 8
Формат : UTF-8
Идентификатор кодека : S_TEXT/UTF8
Идентификатор кодека/Информация : UTF-8 Plain Text
Продолжительность : 1 ч. 30 м.
Битрейт : 52 бит/сек
ElementCount : 1071
Размер потока : 35,0 Кбайт (0%)
Заголовок : Full
Язык : English
Default : Нет
Forced : Нет

Меню
00:00:00.000 : en:The Lost Princess
00:08:20.958 : en:Mother Knows Best
00:15:43.275 : en:Meet Flynn Rider
00:24:41.229 : en:Making a Deal
00:34:42.163 : en:The Snuggly Duckling
00:42:30.881 : en:The Escape
00:50:25.939 : en:In the Woods
00:59:21.933 : en:The Best Day of Your Life
01:10:35.647 : en:Betrayed
01:19:23.425 : en:The Rescue
01:25:22.033 : en:A New Dream
01:31:20.891 : en:End Credits

piratbit.pw



Скачать Рапунцель: Запутанная история через торрент https://img16.lostpic.net/2019/10/26/2e421e81e549f6ff140dd6a420d87cb0.jpg Скачать фильм Рапунцель: Запутанная история через торрент бесплантно в хорошем качестве Описание: "Столько дней у окна сидела, столько лет мучилась, ждала! Я жила и не замечала, как была слепа..." А как же иначе, если за все 18 ... 10 10 4
Info! Золотая раздача, скачанное не засчитывается.
Торрент: Зарегистрирован [2019-10-28 05:51] · скачан: 23 раз
Статус: √ проверено
Размер: 14.92 GB
Как cкачать? Как скачать Рапунцель: Запутанная история через торрент | qTorrent

% Раздел Тема Автор DL S | L
Ultra HD (UHD: 2K, 4K, 8K) [ 19.63 GB ] Рапунцель: Запутанная история / Tangled [2010 Мультфильм мюзикл UHD BDRip 2160p] [SDR] DUB [] +2xAVO bober100 Скачать
1 | 0
Ultra HD (UHD: 2K, 4K, 8K) [ 48.95 GB ] Рапунцель: Запутанная история / Tangled [2010 Мультфильм мюзикл UHD BDRemux 2160p] DUB [] +DVO+2xAVO bober100 Скачать
1 | 0

28-11-2019 20:33  

Отключить всю рекламу на сайте

    Дорогой пользователь! Огромная просьба, поблагодарите релизера, оцените раздачу и оставьте свои комментарий, если Вы скачали Рапунцель: Запутанная история через торрент бесплатно! Внесите свою лепту в развитие PiratBit!
    Комментировать посты могут только пользователи прошедшие не сложную регистрацию
    Показать сообщения:    

    Рапунцель: Запутанная история через торрент
    Скачать бесплатно Рапунцель: Запутанная история
    Рапунцель: Запутанная история скачать торрент
    Рапунцель: Запутанная история смотреть онлайн
    Cкачать фильм Рапунцель: Запутанная история бесплатно
    Рапунцель: Запутанная история скачать торрент в хорошем качестве
    Рапунцель: Запутанная история смотреть онлайн бесплатно в хорошем качестве


    Вы не можете начинать темы
    Вы не можете отвечать на сообщения
    Вы не можете редактировать свои сообщения
    Вы не можете удалять свои сообщения
    Вы не можете голосовать в опросах
    Вы не можете прикреплять файлы к сообщениям
    Вы можете скачивать файлы