Ссылка на приватное зеркало всего за 1$. Внимание количество ограничено!!!

iTunes

iTunes

iTunes

1

iTunes

iTunes

iTunes

iTunes

iTunes

30
pack

$ от Little Big

ВАЖНО

!!Акция!!

Alien_RageХит недели

RePack

Resident Evil 21

ИГРА 18+

pack

RePack

jed

!!Акция!!

Alien_Rage

RePack

fifa19

RePack

Assassins Creed: Odyssey

RePack

NEED FOR SPEED™ PAYBACK

4 сезон

9 сезон

Бесстыжие 9 сезон

Все сериалы

все сериалы на PB.wtf

RePack

FAR CRY 5
  

Мысленный волк (Валерия Гай Германика) [2019, фэнтези, драма, фильм-нуар, WEB-DL 1080p] [iTunes] piratbit.pw

Мысленный волк через торрент piratbit.pw

Раздают: 2 [ 0 KB/s ]
Размер: 2.37 GB | Добавлен: 5 мес. назад | Торрент скачан:115 раз
Скачать  

27-10-2019 06:27 Мысленный волк Скачать торрент  

Мысленный волк
Год выпуска: 2019
Страна: Россия
Жанр: фэнтези, драма, фильм-нуар
Продолжительность: 01:08:27
Перевод: Не требуется | iTunes
Субтитры: отсутствуют

Режиссер: Валерия Гай Германика

rating

В ролях: Юлия Высоцкая, Лиза Климова, Федор Лавров, Юрий Трубин, Ася Озтюрк

Описание: Зима, лунная ночь... Две женщины с ребенком пробираются сквозь лесную чащу. А где-то рядом в поисках жертвы рыщет волк-оборотень. То ли зверь, то ли человек, то ли фантом...

Качество: WEB-DL 1080p
Формат: MKV

Видео: MPEG-4 AVC, 4478 Кбит/с, 1920x804, 24.000 fps
Аудио: 48 kHz, AC3 Dolby Digital, 3/2 (L,C,R,l,r) + LFE ch, ~384 kbps
скриншот  скриншот  скриншот  скриншот  

Video
ID : 1
Format : AVC
Format/Info : Advanced Video Codec
Format profile : High@L4
Format settings : CABAC / 5 Ref Frames
Format settings, CABAC : Yes
Format settings, Reference : 5 frames
Codec ID : V_MPEG4/ISO/AVC
Duration : 1 h 8 min
Bit rate : 4 478 kb/s
Width : 1 920 pixels
Height : 804 pixels
Display aspect ratio : 2.40:1
Frame rate mode : Constant
Frame rate : 24.000 FPS
Color space : YUV
Chroma subsampling : 4:2:0
Bit depth : 8 bits
Scan type : Progressive
Bits/(Pixel*Frame) : 0.121
Stream size : 2.14 GiB (90%)
Title : MIND_WOLF_2019_WEB-DL_1080p-BLUEBIRD
Language : English
Default : Yes
Forced : No
Color range : Limited
Color primaries : BT.709
Transfer characteristics : BT.709
Matrix coefficients : BT.709

Audio
ID : 2
Format : AC-3
Format/Info : Audio Coding 3
Commercial name : Dolby Digital
Codec ID : A_AC3
Duration : 1 h 8 min
Bit rate mode : Constant
Bit rate : 384 kb/s
Channel(s) : 6 channels
Channel layout : L R C LFE Ls Rs
Sampling rate : 48.0 kHz
Frame rate : 31.250 FPS (1536 SPF)
Compression mode : Lossy
Stream size : 188 MiB (8%)
Title : [ORIGINAL] DD 5.1 @ 384 kbps (iTunes)
Language : Russian
Service kind : Complete Main
Default : Yes
Forced : No

Menu
00:00:00.000 : en:Глава 1
00:06:52.958 : en:Глава 2
00:14:29.833 : en:Глава 3
00:20:19.666 : en:Глава 4
00:28:34.666 : en:Глава 5
00:36:47.374 : en:Глава 6
00:44:29.082 : en:Глава 7
00:51:06.373 : en:Глава 8
00:57:28.289 : en:Глава 9

piratbit.pw



Скачать Мысленный волк через торрент https://a.radikal.ru/a33/2001/04/f68255a07960.png Скачать фильм Мысленный волк через торрент бесплантно в хорошем качестве Описание: Зима, лунная ночь... Две женщины с ребенком пробираются сквозь лесную чащу. А где-то рядом в поисках жертвы рыщет волк-оборотень. ... 8.7 10 7
Торрент: Зарегистрирован [2020-01-01 08:53] · скачан: 115 раз
Статус: √ проверено
Размер: 2.37 GB
Как cкачать? Как скачать Мысленный волк через торрент | qTorrent

% Раздел Тема Автор DL S | L
Наши новые фильмы 2018-2019 [ 1.09 GB ] Мысленный волк [2019 фильм-нуар WEB-DLRip] bober100 Скачать
2 | 0

28-11-2019 20:33  

Отключить всю рекламу на сайте

    Дорогой пользователь! Огромная просьба, поблагодарите релизера, оцените раздачу и оставьте свои комментарий, если Вы скачали Мысленный волк через торрент бесплатно! Внесите свою лепту в развитие PiratBit!
    Комментировать посты могут только пользователи прошедшие не сложную регистрацию
    Показать сообщения:    

    Мысленный волк через торрент
    Скачать бесплатно Мысленный волк
    Мысленный волк скачать торрент
    Мысленный волк смотреть онлайн
    Cкачать фильм Мысленный волк бесплатно
    Мысленный волк скачать торрент в хорошем качестве
    Мысленный волк смотреть онлайн бесплатно в хорошем качестве


    Вы не можете начинать темы
    Вы не можете отвечать на сообщения
    Вы не можете редактировать свои сообщения
    Вы не можете удалять свои сообщения
    Вы не можете голосовать в опросах
    Вы не можете прикреплять файлы к сообщениям
    Вы можете скачивать файлы